Telecharger Secret Agency [BLURAY 720p] French

(TRUEFRENCH = Vraie voix française)

Qualité BLURAY 720p | TRUEFRENCH

Secret Agency

Secret Agency

Origine du film : Américain
Réalisateur : Kyle Newman
Acteurs : Hailee Steinfeld, Jessica Alba, Samuel L. Jackson
Genre : Comédie, Action
Durée : 1h36min
Année de production : 2014
Titre Original : Barely Lethal
Note spectateurs : Secret Agency 2,7/5 (13)
Bande annonce :

1538e38f59693af8a94dd65edd7da86d

19554545″>Cliquez-ici pour voir la bande annonce 1538e38f59693af8a94dd65edd7da86d »> 19554545

1538e38f59693af8a94dd65edd7da86d

Secret Agency

Megan, 16 ans, a été recrutée et formée par un agent des opérations spéciales pour éliminer de dangereux criminels. Pour devenir une adolescente comme les autres, Megan décide de disparaître en simulant sa mort. Mais ce qui l’attend dans la « vraie » vie ne sera pas de tout repos. 93527″ style= »display:inline; »>

Secret Agency

Format : MKV

Secret Agency

Barely Lethal 2015 TRUEFRENCH 720p BluRay x264-SVR

(3716 Mo)

[Liens Interchangeables entre hébergeurs: 3x 1000 Mo + 1x 716 Mo]

Uptobox
Télécharger

Uplea
Télécharger

1fichier
Télécharger

Uploaded
Télécharger

Rapidgator
Télécharger

TurboBit
Télécharger

[ 1 lien Premium ]

Uptobox
Télécharger

Uplea
Télécharger

1fichier
Télécharger

Uploaded
Télécharger

TurboBit
Télécharger

NFO :

Afficher / Masquer le texte 97f3d93c7e5253d302c8b6f4ab573a56″ class= »text_spoiler » style= »display:none; »>General
Complete name : Barely.Lethal.2015.TRUEFRENCH.720p.BluRay.X264-SVR.mkv
Format : Matroska
Format version : Version 2
File size : 3.63 GiB
Duration : 1h 38mn
Overall bit rate : 5 253 Kbps
Encoded date : UTC 2015-08-04 15:11:32
Writing application : mkvmerge v5.6.0 (‘Kenya Kane’) built on May 28 2012 06:47:39
Writing library : libebml v1.2.2 + libmatroska v1.3.0
Source Vidéo : RARBG
Source Audio : EXTREME

Video
ID : 1
Format : AVC
Format/Info : Advanced Video Codec
Format profile : [email protected]
Format settings, CABAC : Yes
Format settings, ReFrames : 5 frames
Muxing mode : Header stripping
Codec ID : V_MPEG4/ISO/AVC
Duration : 1h 38mn
Bit rate : 4 813 Kbps
Width : 1 280 pixels
Height : 696 pixels
Display aspect ratio : 1.85:1
Frame rate : 23.976 fps
Color space : YUV
Chroma subsampling : 4:2:0
Bit depth : 8 bits
Scan type : Progressive
Bits/(Pixel*Frame) : 0.225
Stream size : 3.25 GiB (89%)
Writing library : x264 core 148 r2579 73ae2d1
Encoding settings : cabac=1 / ref=5 / deblock=1:-1:-1 / analyse=0x3:0x113 / me=umh / subme=7 / psy=1 / psy_rd=1.00:0.00 / mixed_ref=1 / me_range=16 / chroma_me=1 / trellis=1 / 8x8dct=1 / cqm=0 / deadzone=21,11 / fast_pskip=1 / chroma_qp_offset=-2 / threads=12 / lookahead_threads=2 / sliced_threads=0 / nr=0 / decimate=1 / interlaced=0 / bluray_compat=0 / constrained_intra=0 / bframes=3 / b_pyramid=2 / b_adapt=2 / b_bias=0 / direct=3 / weightb=1 / open_gop=0 / weightp=2 / keyint=250 / keyint_min=23 / scenecut=40 / intra_refresh=0 / rc_lookahead=40 / rc=2pass / mbtree=1 / bitrate=4813 / ratetol=1.0 / qcomp=0.60 / qpmin=0 / qpmax=69 / qpstep=4 / cplxblur=20.0 / qblur=0.5 / vbv_maxrate=50000 / vbv_bufsize=50000 / nal_hrd=none / filler=0 / ip_ratio=1.40 / aq=1:1.00
Language : English
Default : Yes
Forced : No

Audio
ID : 2
Format : AC-3
Format/Info : Audio Coding 3
Mode extension : CM (complete main)
Format settings, Endianness : Big
Muxing mode : Header stripping
Codec ID : A_AC3
Duration : 1h 38mn
Bit rate mode : Constant
Bit rate : 448 Kbps
Channel(s) : 6 channels
Channel positions : Front: L C R, Side: L R, LFE
Sampling rate : 48.0 KHz
Bit depth : 16 bits
Compression mode : Lossy
Delay relative to video : 8s 500ms
Stream size : 317 MiB (9%)
Language : French
Default : Yes
Forced : No

Jeux Gratuit
15354131_1854970838071206_1069261547_o.png