Telecharger Service non compris [BLURAY 720p] French

BLURAY 720p | MULTiLANGUES (Avec VFI)

Service non compris

Service non compris

Service non compris

Origine du film : Américain
Réalisateur : Rob McKittrick
Acteurs : Ryan Reynolds, Justin Long, Anna Faris
Genre : Comédie
Durée : 1h31min
Année de production : 2005
Titre Original : Waiting…
Note spectateurs : Service non compris

; »>2,7/5 (162)
Bande annonce :

43511dac1aa7752676a6be3150633f2c

19537106″>Cliquez-ici pour voir la bande annonce 43511dac1aa7752676a6be3150633f2c »> 19537106

43511dac1aa7752676a6be3150633f2c

Service non compris

Serveur chez Shenanigan's depuis le lycée, Dean ne s'est jamais remis en question. Quand il apprend que Chett, avec qui il était en classe, est désormais un riche ingénieur, il veut donner un nouveau sens à sa vie. Son ami Monty est dans la même situation mais s'en fiche et préfère faire la fête… 46623″ style= »display:inline; »>

Qualité : BLURAY 720p
Format : MKV
Sous-titre : Français
Découpé avec : Winrar
Nombre de fichiers : 4 Fichiers
Taille des fichiers : 1000 Mo 185 Mo

[Liens Interchangeables]

Waiting.2005.MULTI.720p.BluRay.x264.AC3-LCDS ( 3185 Mo)

1fichier
Télécharger

Uptobox
Télécharger

Free
Télécharger

Uploaded
Télécharger

Rapidgator
Télécharger

TurboBit
Télécharger

[ 1 Lien Premium – 3,2 Go ]

1fichier
Télécharger

Uptobox
Télécharger

Free
Télécharger

Uploaded
Télécharger

TurboBit
Télécharger

NFO :

Afficher / Masquer le texte d41b48ba01ebaf366c0d988d34ac6a61″ class= »text_spoiler » style= »display:none; »>Langue :VOA VFI
Sous-titre :Anglais Français
Codec vidéo :AVC (H.264) – 4070 Kbps
Codec audio :VOA AC3 5.1 448 Kbps / VFI AC3 2.0 128 Kbps

General
Complete name : Waiting.2005.MULTI.720p.BluRay.x264.AC3-LCDS.mkv
Format : Matroska
Format version : Version 4 / Version 2
File size : 3.11 GiB
Duration : 1h 33mn
Overall bit rate : 4 741 Kbps
Encoded date : UTC 2014-01-20 18:04:43
Writing application : mkvmerge v6.7.0 ('Back to the Ground') 64bit built on Jan 8 2014 15:10:52
Writing library : libebml v1.3.0 libmatroska v1.4.1

Video
ID : 1
Format : AVC
Format/Info : Advanced Video Codec
Format profile : [email protected]
Format settings, CABAC : Yes
Format settings, ReFrames : 9 frames
Codec ID : V_MPEG4/ISO/AVC
Duration : 1h 33mn
Bit rate : 4 070 Kbps
Width : 1 280 pixels
Height : 720 pixels
Display aspect ratio : 16:9
Frame rate mode : Constant
Frame rate : 23.976 fps
Color space : YUV
Chroma subsampling : 4:2:0
Bit depth : 8 bits
Scan type : Progressive
Bits/(Pixel*Frame) : 0.184
Stream size : 2.67 GiB (86%)
Title : Video
Writing library : x264 core 135 r2345kMod f0c1c53
Encoding settings : cabac=1 / ref=9 / deblock=1:-3:-3 / analyse=0x3:0x133 / me=umh / subme=10 / psy=1 / fade_compensate=0.00 / psy_rd=1.00:0.00 / mixed_ref=1 / me_range=64 / chroma_me=1 / trellis=2 / 8x8dct=1 / cqm=0 / deadzone=21,11 / fast_pskip=0 / chroma_qp_offset=-2 / threads=18 / lookahead_threads=3 / sliced_threads=0 / nr=0 / decimate=0 / interlaced=0 / bluray_compat=0 / constrained_intra=0 / bframes=8 / b_pyramid=2 / b_adapt=2 / b_bias=0 / direct=3 / weightb=1 / open_gop=0 / weightp=2 / keyint=240 / keyint_min=23 / scenecut=40 / intra_refresh=0 / rc_lookahead=60 / rc=crf / mbtree=0 / crf=17.0000 / qcomp=0.75 / qpmin=0 / qpmax=30 / qpstep=4 / vbv_maxrate=62500 / vbv_bufsize=78125 / crf_max=0.0 / nal_hrd=none / ip_ratio=1.20 / pb_ratio=1.20 / aq=1:1.00
Default : Yes
Forced : No
Matrix coefficients : BT.709

Audio #1
ID : 2
Format : AC-3
Format/Info : Audio Coding 3
Mode extension : CM (complete main)
Format settings, Endianness : Big
Codec ID : A_AC3
Duration : 1h 33mn
Bit rate mode : Constant
Bit rate : 448 Kbps
Channel(s) : 6 channels
Channel positions : Front: L C R, Side: L R, LFE
Sampling rate : 48.0 KHz
Bit depth : 16 bits
Compression mode : Lossy
Stream size : 301 MiB (9%)
Title : Anglais 5.1
Language : English
Default : No
Forced : No

Audio #2
ID : 3
Format : AC-3
Format/Info : Audio Coding 3
Mode extension : CM (complete main)
Format settings, Endianness : Big
Codec ID : A_AC3
Duration : 1h 33mn
Bit rate mode : Constant
Bit rate : 128 Kbps
Channel(s) : 2 channels
Channel positions : Front: L R
Sampling rate : 48.0 KHz
Bit depth : 16 bits
Compression mode : Lossy
Stream size : 86.0 MiB (3%)
Title : Francais 2.0
Language : French
Default : Yes
Forced : No

Text #1
ID : 4
Format : UTF-8
Codec ID : S_TEXT/UTF8
Codec ID/Info : UTF-8 Plain Text
Title : Anglais
Language : English
Default : No
Forced : No

Text #2
ID : 5
Format : UTF-8
Codec ID : S_TEXT/UTF8
Codec ID/Info : UTF-8 Plain Text
Title : Francais
Language : French
Default : No
Forced : No

Menu
00:00:00.000 : en:Home Sweet Home
00:10:21.037 : en:The New Guy
00:19:57.988 : en:The Power
00:31:37.896 : en:Going Senile
00:37:56.107 : en:Never a Complaint
00:42:48.399 : en:Woman's Opinion
00:50:44.875 : en:Management Card
00:55:35.749 : en:Anger Management
01:00:23.703 : en:Big Winner
01:05:50.571 : en:The Party
01:09:18.988 : en:Closing Time
01:12:28.302 : en:Chet Miller
01:16:21.827 : en:All in Perspective
01:19:40.859 : en:A Good Friend
01:22:15.180 : en:Next Wednesday
01:27:02.300 : en:Made Man