Telecharger Silent Hill : Révélation 3D [BLURAY 720p] French

(TRUEFRENCH = Vraie voix française)

BLURAY 720p | MULTiLANGUES (Avec TRUEFRENCH) | DTS

Silent Hill : Révélation 3D

Silent Hill : Révélation 3D

Silent Hill : Révélation 3D

Origine du film : Français, canadien
Réalisateur : Michael J. Bassett
Acteurs : Adelaide Clemens, Sean Bean, Kit Harington
Genre : Epouvante-horreur
Durée : 1h 34min
Date de sortie : 28 novembre 2012
Année de production : 2012
Titre Original : Silent Hill: Revelation
Distribué par : Metropolitan FilmExport
Note presse : Silent Hill : Révélation 3D 1,8/5
Note spectateurs : Silent Hill : Révélation 3D 2,4/5 (1 260)
Bande annonce :

842916121816fa7720ab608a38870c03

19410278″>Cliquez-ici pour voir la bande annonce 842916121816fa7720ab608a38870c03″> 19410278

842916121816fa7720ab608a38870c03

Silent Hill : Révélation 3D

Depuis son plus jeune âge, Heather Mason a l’habitude de changer d’adresse très souvent avec son père. Sans vraiment savoir pourquoi, elle fuit. Pourtant, cette fois, elle est piégée. Pour sauver celui qui avait toujours réussi à la protéger et découvrir qui elle est vraiment, Heather va devoir affronter un cauchemar qui devient de plus en plus réel…Silent Hill.

Nom de la release : Silent.Hill.2:.Revelation.2012.MULTi.WiTH.TRUEFRENCH.720p.BluRay.DTS.x264-STEAL 24572″ style= »display:inline; »>

Silent Hill : Révélation 3D

Qualité : BLURAY 720p
Format : MKV
Langue : Anglais, Français
Sous-titre : Français
Découpé avec : Winrar
Nombre de fichiers : 5 Fichiers
Taille des fichiers : 1000 Mo 735 Mo
Taille totale : 4735 Mo

Silent Hill : Révélation 3D

[5 liens Interchangeables : 4 x 1000 Mo 1 x 735 Mo]

1fichier.com
Télécharger

Uptobox.com
Télécharger

Free
Télécharger

Uploaded
Télécharger

Rapidgator
Télécharger

TurboBit
Télécharger

[1 lien PREMIUM : 1 x 4.62 GB]

1fichier.com
Télécharger

Uptobox.com
Télécharger

Free
Télécharger

Uploaded
Télécharger

Rapidgator
Télécharger

TurboBit
Télécharger

NFO :

Afficher / Masquer le texte d12f6cee9128d946ebec45ca10e8c262″ class= »text_spoiler » style= »display:none; »>General

Format : Matroska
Format version : Version 4 / Version 2
File size : 4.62 GiB
Duration : 1h 34mn
Overall bit rate : 7 020 Kbps
Encoded date : UTC 2013-04-03 16:44:09
Writing application : mkvmerge v6.1.0 ('Old Devil') built on Mar 2 2013 14:32:37
Writing library : libebml v1.3.0 libmatroska v1.4.0

Video
ID : 1
Format : AVC
Format/Info : Advanced Video Codec
Format profile : [email protected]
Format settings, CABAC : Yes
Format settings, ReFrames : 9 frames
Codec ID : V_MPEG4/ISO/AVC
Duration : 1h 34mn
Bit rate : 4 000 Kbps
Width : 1 280 pixels
Height : 720 pixels
Display aspect ratio : 16:9
Frame rate : 23.976 fps
Color space : YUV
Chroma subsampling : 4:2:0
Bit depth : 8 bits
Scan type : Progressive
Bits/(Pixel*Frame) : 0.181
Stream size : 2.54 GiB (55%)
Title : SILENT HILL 2 REVELATION 2012 High [email protected] Resolution 1280p/ 720p Frame rate 23.976 fps Release ┬░V┬░Eyes
Writing library : x264 core 130 r2273 b3065e6
Encoding settings : cabac=1 / ref=9 / deblock=1:-3:-3 / analyse=0x3:0x113 / me=umh / subme=11 / psy=1 / psy_rd=0.93:0.02 / mixed_ref=1 / me_range=128 / chroma_me=1 / trellis=2 / 8x8dct=1 / cqm=0 / deadzone=21,11 / fast_pskip=0 / chroma_qp_offset=-2 / threads=12 / lookahead_threads=2 / sliced_threads=0 / nr=0 / decimate=1 / interlaced=0 / bluray_compat=0 / constrained_intra=0 / bframes=8 / b_pyramid=2 / b_adapt=2 / b_bias=0 / direct=1 / weightb=1 / open_gop=1 / weightp=2 / keyint=240 / keyint_min=23 / scenecut=40 / intra_refresh=0 / rc_lookahead=240 / rc=2pass / mbtree=1 / bitrate=4000 / ratetol=1.0 / qcomp=0.60 / qpmin=0 / qpmax=69 / qpstep=4 / cplxblur=20.0 / qblur=0.5 / vbv_maxrate=50000 / vbv_bufsize=50000 / nal_hrd=none / ip_ratio=1.40 / aq=2:1.00
Language : English
Default : Yes
Forced : No
Color primaries : BT.709-5, BT.1361, IEC 61966-2-4, SMPTE RP177
Transfer characteristics : BT.709-5, BT.1361
Matrix coefficients : BT.709-5, BT.1361, IEC 61966-2-4 709, SMPTE RP177

Audio #1
ID : 2
Format : DTS
Format/Info : Digital Theater Systems
Codec ID : A_DTS
Duration : 1h 34mn
Bit rate mode : Constant
Bit rate : 1 510 Kbps
Channel(s) : 6 channels
Channel positions : Front: L C R, Side: L R, LFE
Sampling rate : 48.0 KHz
Bit depth : 16 bits
Compression mode : Lossy
Stream size : 1 019 MiB (22%)
Title : VFF DTS 5.1_1509 kbps 16-bit 48khz
Language : French
Default : Yes
Forced : No

Audio #2
ID : 3
Format : DTS
Format/Info : Digital Theater Systems
Codec ID : A_DTS
Duration : 1h 34mn
Bit rate mode : Constant
Bit rate : 1 510 Kbps
Channel(s) : 6 channels
Channel positions : Front: L C R, Side: L R, LFE
Sampling rate : 48.0 KHz
Bit depth : 16 bits
Compression mode : Lossy
Stream size : 1 019 MiB (22%)
Title : V.O DTS 5.1_1509 kbps 16-bit 48khz
Language : English
Default : No
Forced : No

Text #1
ID : 4
Format : UTF-8
Codec ID : S_TEXT/UTF8
Codec ID/Info : UTF-8 Plain Text
Title : Sous-titres Français forcés.SRT
Language : French
Default : Yes
Forced : No

Text #2
ID : 5
Format : UTF-8
Codec ID : S_TEXT/UTF8
Codec ID/Info : UTF-8 Plain Text
Title : Sous-titres Français complets.SRT
Language : French
Default : No
Forced : No

Text #3
ID : 6
Format : UTF-8
Codec ID : S_TEXT/UTF8
Codec ID/Info : UTF-8 Plain Text
Title : Full Subtitles English.SRT
Language : English
Default : No
Forced : No

Menu
00:00:00.000 : fr: 01. L'APPEL DES OMBRES
00:04:22.345 : fr: 02. ENTRE DEUX MONDES
00:09:58.223 : fr: 03. UNE PARIA
00:16:50.468 : fr: 04. LES BAS-FONDS
00:22:49.994 : fr: 05. « MA R├ëALIT├ë »
00:27:40.784 : fr: 06. LES ARCHIVES DE SILENT HILL
00:35:04.936 : fr: 07. UNE PART DU DÉMON
00:40:31.179 : fr: 08. LE MARTYRE D'ALESSA
00:47:09.118 : fr: 09. TÉTANISÉS DE PEUR
00:52:16.759 : fr: 10. MAISON DE FOUS
00:58:07.192 : fr: 11. LEONARD, L'AUTRE MOITIÉ
01:03:33.685 : fr: 12. PAS UN GESTE!
01:09:43.388 : fr: 13. MANÈGE INFERNAL
01:16:16.155 : fr: 14. LA GUERRE DES MONSTRES
01:22:38.912 : fr: 15. A LA CROISÉE DES CHEMINS
01:27:03.802 : fr: 16. G├ëN├ëRIQUE DE FIN…