Telecharger Sin City [BLURAY 720p] French

BLURAY 720p | FRENCH (VFQ)

Sin City

Sin City

Sin City

Origine du film : Américain
Réalisateur : Robert Rodriguez, Frank Miller, Quentin Tarantino
Acteurs : Bruce Willis, Mickey Rourke, Jessica Alba
Genre : Action, Thriller, Policier
Durée : 2h 3min
Date de sortie : 1 juin 2005
Année de production : 2005
Distribué par : Pan Européenne Edition
Note presse : Sin City 3,6/5
Note spectateurs : Sin City 4/5 (30 505)
Bande annonce :

320e9041b6781b2da8093256ed324492

18379635″>Cliquez-ici pour voir la bande annonce 320e9041b6781b2da8093256ed324492″> 18379635

320e9041b6781b2da8093256ed324492

Sin City

Sin City est une ville infestée de criminels, de flics ripoux et de femmes fatales. Hartigan s'est juré de protéger Nancy, une strip-teaseuse qui l'a fait craquer. Marv, un marginal brutal mais philosophe, part en mission pour venger la mort de son unique véritable amour, Goldie. Dwight est l'amant secret de Shellie. Il passe ses nuits à protéger Gail et les filles des bas quartiers de Jackie Boy, un flic pourri, violent et incontrôlable. Certains ont soif de vengeance, d'autres recherchent leur salut. Bienvenue à Sin City, la ville du vice et du péché.

Nom de la release : Sin.City.2005.FRENCH.720p.BluRay.x264-ForceBleue 17688″ style= »display:inline; »>

Sin City

Qualité : BLURAY 720p
Format : MKV
Langue : Français
Sous-titre : Français
Découpé avec : Winrar
Nombre de fichiers : 5 Fichiers
Taille des fichiers : 1000 Mo 478 Mo
Taille totale : 4478 Mo

Sin City

[Liens Interchangeables]

1fichier
Télécharger

Uptobox
Télécharger

Uploaded
Télécharger

Rapidgator
Télécharger

TurboBit
Télécharger

[Liens PREMIUM]

Uptobox
Télécharger

Uplea
Télécharger

1fichier
Télécharger

Uploaded
Télécharger

Rapidgator
Télécharger

TurboBit
Télécharger

NFO :

Afficher / Masquer le texte a5d7b1c0c402c0ec4513b586fb25fd51″ class= »text_spoiler » style= »display:none; »>Complete name : /home/cellular/torrents/Sin.City.2005.FRENCH.720p.BluRay.x264-ForceBleue.mkv
Format : Matroska
Format version : Version 1
File size : 4.37 GiB
Duration : 2h 4mn
Overall bit rate : 5 047 Kbps
Encoded date : UTC 2008-10-14 01:40:49
Writing application : mkvmerge v2.2.0 ('Turn It On Again') built on Mar 4 2008 12:58:26
Writing library : libebml v0.7.7 libmatroska v0.8.1

Video
ID : 1
Format : AVC
Format/Info : Advanced Video Codec
Format profile : [email protected]
Format settings, CABAC : Yes
Format settings, ReFrames : 8 frames
Codec ID : V_MPEG4/ISO/AVC
Duration : 2h 4mn
Bit rate : 4 595 Kbps
Width : 1 280 pixels
Height : 720 pixels
Display aspect ratio : 16:9
Frame rate mode : Constant
Frame rate : 23.976 fps
Color space : YUV
Chroma subsampling : 4:2:0
Bit depth : 8 bits
Scan type : Progressive
Bits/(Pixel*Frame) : 0.208
Stream size : 3.90 GiB (89%)
Writing library : x264 core 55 svn-663C
Encoding settings : cabac=1 / ref=5 / deblock=1:0:0 / analyse=0x3:0x133 / me=umh / subme=6 / brdo=1 / mixed_ref=1 / me_range=16 / chroma_me=1 / trellis=1 / 8x8dct=1 / cqm=0 / deadzone=21,11 / chroma_qp_offset=0 / threads=6 / nr=0 / decimate=1 / mbaff=0 / bframes=3 / b_pyramid=1 / b_adapt=1 / b_bias=0 / direct=1 / wpredb=1 / bime=1 / keyint=250 / keyint_min=25 / scenecut=40(pre) / rc=2pass / bitrate=4595 / ratetol=1.0 / rceq='blurCplx^(1-qComp)' / qcomp=0.60 / qpmin=10 / qpmax=51 / qpstep=4 / cplxblur=20.0 / qblur=0.5 / ip_ratio=1.40 / pb_ratio=1.30
Language : English
Default : Yes
Forced : No

Audio
ID : 4
Format : AC-3
Format/Info : Audio Coding 3
Mode extension : CM (complete main)
Format settings, Endianness : Big
Codec ID : A_AC3
Duration : 2h 4mn
Bit rate mode : Constant
Bit rate : 448 Kbps
Channel(s) : 6 channels
Channel positions : Front: L C R, Side: L R, LFE
Sampling rate : 48.0 KHz
Bit depth : 16 bits
Compression mode : Lossy
Stream size : 397 MiB (9%)
Title : Ac3 448 Kbps
Language : French
Default : Yes
Forced : No

Text #1
ID : 2
Format : UTF-8
Codec ID : S_TEXT/UTF8
Codec ID/Info : UTF-8 Plain Text
Language : French
Default : No
Forced : No

Text #2
ID : 3
Format : UTF-8
Codec ID : S_TEXT/UTF8
Codec ID/Info : UTF-8 Plain Text
Title : Forced
Language : French
Default : Yes
Forced : No

Jeux Gratuit
15354131_1854970838071206_1069261547_o.png