Telecharger Sous le signe du taureau [DVDRiP] French

(TRUEFRENCH = Vraie voix française)

Qualité BDRiP mkv | TRUEFRENCH

Sous le signe du taureau

Sous le signe du taureau

Origine du film : Français
Réalisateur : Gilles Grangier
Acteurs : Jean Gabin, Suzanne Flon, Michel Auclair
Genre : Comédie dramatique
Durée : 1h25min
Année de production : 1969
Note spectateurs : Sous le signe du taureau

; »>2,9/5 (29)

Sous le signe du taureau

L’industriel Albert Raynal est lâché par ses financiers alors que son missile SR01 vient d’exploser en vol lors de son premier essai. Même sa femme l’informe de son intention de divorcer. Il ne renonce pas pourtant, et reprend ses recherches.
105254″ style= »display:inline; »>

Sous le signe du taureau

Format : MKV

Sous le signe du taureau

Sous.Le.Signe.Du.Taureau.1969.TRUEFRENCH.BDRip.x264.AC3-R1

(1090 Mo)

Uptobox
Télécharger

Uploaded
Télécharger

TurboBit
Télécharger

Rapidgator
Télécharger

Uplea
Télécharger

1fichier
Télécharger

NFO :

Afficher / Masquer le texte 43c9c545ddb105e67e29d5d08ffa2c0a » class= »text_spoiler » style= »display:none; »>General
Unique ID : 198185532637319579952559136985289724167 (0x9519252AD9061188B64495CD13BA1107)
Complete name : Sous.Le.Signe.Du.Taureau.1969.TRUEFRENCH.BDRip.x264.AC3-R1/Sous.Le.Signe.Du.Taureau.1969.TRUEFRENCH.BDRip.x264.AC3-R1.mkv
Format : Matroska
Format version : Version 2
File size : 1.09 GiB
Duration : 1h 21mn
Overall bit rate : 1 924 Kbps
Movie name : Sous.Le.Signe.Du.Taureau.1969.TRUEFRENCH.BDRip.x264.AC3-R1
Encoded date : UTC 2015-11-11 15:24:51
Writing application : mkvmerge v5.6.0 (‘Kenya Kane’) built on May 28 2012 06:47:39
Writing library : libebml v1.2.2 + libmatroska v1.3.0

Video
ID : 1
Format : AVC
Format/Info : Advanced Video Codec
Format profile : [email protected]
Format settings, CABAC : Yes
Format settings, ReFrames : 14 frames
Muxing mode : Header stripping
Codec ID : V_MPEG4/ISO/AVC
Duration : 1h 21mn
Bit rate : 1 246 Kbps
Width : 720 pixels
Height : 434 pixels
Display aspect ratio : 1.659
Frame rate mode : Constant
Frame rate : 24.000 fps
Color space : YUV
Chroma subsampling : 4:2:0
Bit depth : 8 bits
Scan type : Progressive
Bits/(Pixel*Frame) : 0.166
Stream size : 722 MiB (65%)
Writing library : x264 core 132
Encoding settings : cabac=1 / ref=14 / deblock=1:-1:-1 / analyse=0x3:0x133 / me=umh / subme=10 / psy=1 / psy_rd=1,00:10,00 / mixed_ref=1 / me_range=24 / chroma_me=1 / trellis=2 / 8x8dct=1 / cqm=0 / deadzone=21,11 / fast_pskip=1 / chroma_qp_offset=-4 / threads=18 / lookahead_threads=2 / sliced_threads=0 / nr=0 / decimate=1 / interlaced=0 / bluray_compat=0 / constrained_intra=0 / bframes=6 / b_pyramid=2 / b_adapt=2 / b_bias=0 / direct=3 / weightb=1 / open_gop=0 / weightp=2 / keyint=240 / keyint_min=24 / scenecut=40 / intra_refresh=0 / rc_lookahead=60 / rc=crf / mbtree=1 / crf=18,0 / qcomp=0,60 / qpmin=3 / qpmax=69 / qpstep=4 / ip_ratio=1,40 / aq=1:1,00
Language : English
Default : Yes
Forced : No
Color primaries : BT.709
Transfer characteristics : BT.709
Matrix coefficients : BT.709

Audio
ID : 2
Format : AC-3
Format/Info : Audio Coding 3
Mode extension : CM (complete main)
Format settings, Endianness : Big
Muxing mode : Header stripping
Codec ID : A_AC3
Duration : 1h 21mn
Bit rate mode : Constant
Bit rate : 640 Kbps
Channel(s) : 2 channels
Channel positions : Front: L R
Sampling rate : 48.0 KHz
Bit depth : 16 bits
Compression mode : Lossy
Stream size : 371 MiB (33%)
Language : French
Default : Yes
Forced : No