Telecharger Spy [BLURAY 720p] French

(TRUEFRENCH = Vraie voix française)

Qualité BLURAY 720p | TRUEFRENCH

Spy

Spy

Spy

Origine du film : Américain
Réalisateur : Paul Feig
Acteurs : Melissa McCarthy, Jason Statham, Jude Law
Genre : Comédie, Action
Durée : 2h0min
Date de sortie : 17 juin 2015
Année de production : 2015
Distribué par : Twentieth Century Fox France
Note presse : Spy 3,0/5
Note spectateurs : Spy

; »>3,8/5 (2 846)
Bande annonce :

adc5b1644ec55901d972ee67f067ee30

19552456″>Cliquez-ici pour voir la bande annonce adc5b1644ec55901d972ee67f067ee30″> 19552456

adc5b1644ec55901d972ee67f067ee30

Spy

Susan Cooper est une modeste et discrète analyste au siège de la CIA. Héroïne méconnue, elle assiste à distance l’un des meilleurs espions de l’agence, Bradley Fine, dans ses missions les plus périlleuses. Lorsque Fine disparaît et que la couverture d’un autre agent est compromise, Susan se porte volontaire pour infiltrer le redoutable univers des marchands d’armes et tenter d’éviter une attaque nucléaire…
100174″ style= »display:inline; »>

Spy

Format : MKV

Spy

Spy.2015.UNRATED.TRUEFRENCH.720p.BluRay.x264-Goatlove

(4473 Mo)

[Liens Interchangeables entre hébergeurs: 4x 1000 Mo + 1x 473 Mo]

Uptobox
Télécharger

Uplea
Télécharger

1fichier
Télécharger

Uploaded
Télécharger

Rapidgator
Télécharger

TurboBit
Télécharger

1 Lien Premium – 4.4 Go

Uptobox Premium
Télécharger

Uplea Premium
Télécharger

1fichier Premium
Télécharger

Uploaded Premium
Télécharger

TurboBit Premium
Télécharger

NFO :

Afficher / Masquer le texte 47556b277bea9512564ce784b7727902″ class= »text_spoiler » style= »display:none; »>General
Complete name : spy.2015.unrated.truefrench.720p.bluray.x264-goatlove.mkv
Format : Matroska
Format version : Version 2
File size : 4.37 GiB
Duration : 2h 10mn
Overall bit rate : 4 798 Kbps
Writing application : mkvmerge v6.6.0 (‘The Edge Of The In Between’) built on Dec 1 2013 17:55:00
Writing library : libebml v1.3.0 + libmatroska v1.4.1

Video
ID : 1
Format : AVC
Format/Info : Advanced Video Codec
Format profile : [email protected]
Format settings, CABAC : Yes
Format settings, ReFrames : 5 frames
Codec ID : V_MPEG4/ISO/AVC
Duration : 2h 10mn
Bit rate : 4 347 Kbps
Width : 1 280 pixels
Height : 536 pixels
Display aspect ratio : 2.40:1
Frame rate mode : Constant
Frame rate : 23.976 fps
Color space : YUV
Chroma subsampling : 4:2:0
Bit depth : 8 bits
Scan type : Progressive
Bits/(Pixel*Frame) : 0.264
Stream size : 3.87 GiB (89%)
Writing library : x264 core 148 r2597 e86f3a1
Encoding settings : cabac=1 / ref=5 / deblock=1:0:0 / analyse=0x3:0x113 / me=umh / subme=8 / psy=1 / psy_rd=1.00:0.00 / mixed_ref=1 / me_range=16 / chroma_me=1 / trellis=1 / 8x8dct=1 / cqm=0 / deadzone=21,11 / fast_pskip=1 / chroma_qp_offset=-2 / threads=12 / lookahead_threads=2 / sliced_threads=0 / nr=0 / decimate=1 / interlaced=0 / bluray_compat=0 / constrained_intra=0 / bframes=3 / b_pyramid=2 / b_adapt=2 / b_bias=0 / direct=3 / weightb=1 / open_gop=0 / weightp=2 / keyint=250 / keyint_min=23 / scenecut=40 / intra_refresh=0 / rc_lookahead=50 / rc=2pass / mbtree=1 / bitrate=4347 / ratetol=1.0 / qcomp=0.60 / qpmin=0 / qpmax=69 / qpstep=4 / cplxblur=20.0 / qblur=0.5 / ip_ratio=1.40 / aq=1:1.00
Language : English
Default : Yes
Forced : No

Audio
ID : 2
Format : AC-3
Format/Info : Audio Coding 3
Mode extension : CM (complete main)
Format settings, Endianness : Big
Codec ID : A_AC3
Duration : 2h 10mn
Bit rate mode : Constant
Bit rate : 448 Kbps
Channel(s) : 6 channels
Channel positions : Front: L C R, Side: L R, LFE
Sampling rate : 48.0 KHz
Bit depth : 16 bits
Compression mode : Lossy
Stream size : 418 MiB (9%)
Title : French
Language : French
Default : Yes
Forced : No

Text
ID : 3
Format : UTF-8
Codec ID : S_TEXT/UTF8
Codec ID/Info : UTF-8 Plain Text
Language : English
Default : No
Forced : No

Menu
00:00:00.000 : en:00:00:00.000
00:03:38.593 : en:00:03:38.593
00:07:46.132 : en:00:07:46.132
00:10:08.691 : en:00:10:08.691
00:14:11.142 : en:00:14:11.142
00:15:42.859 : en:00:15:42.859
00:20:54.378 : en:00:20:54.378
00:23:25.863 : en:00:23:25.863
00:27:59.928 : en:00:27:59.928
00:31:11.077 : en:00:31:11.077
00:34:24.062 : en:00:34:24.062
00:39:30.576 : en:00:39:30.576
00:45:24.847 : en:00:45:24.847
00:47:42.318 : en:00:47:42.318
00:50:48.128 : en:00:50:48.128
00:55:26.656 : en:00:55:26.656
00:58:28.547 : en:00:58:28.547
01:03:35.728 : en:01:03:35.728
01:08:58.509 : en:01:08:58.509
01:11:00.131 : en:01:11:00.131
01:16:25.998 : en:01:16:25.998
01:22:32.906 : en:01:22:32.906
01:28:07.323 : en:01:28:07.323
01:33:11.419 : en:01:33:11.419
01:37:02.858 : en:01:37:02.858
01:40:18.429 : en:01:40:18.429
01:47:27.190 : en:01:47:27.190
01:50:45.055 : en:01:50:45.055
01:55:31.382 : en:01:55:31.382
01:59:40.464 : en:01:59:40.464
02:02:28.341 : en:02:02:28.341
02:05:03.662 : en:02:05:03.662

Jeux Gratuit
15354131_1854970838071206_1069261547_o.png