Telecharger Star Trek II : La Colère de Khan [DVDRiP] French

(TRUEFRENCH = Vraie voix française)

Qualité BDRiP mkv | MULTiLANGUES (Avec TRUEFRENCH)

Star Trek II : La Colère de Khan

Star Trek II : La Colère de Khan

Origine du film : Américain
Réalisateur : Nicholas Meyer
Acteurs : William Shatner, Leonard Nimoy, DeForest Kelley
Genre : Science fiction
Durée : 1h52min
Date de sortie : 20 octobre 1982
Année de production : 1982
Titre Original : Star Trek II: The Wrath of Khan
Note spectateurs : Star Trek II : La Colère de Khan

; »>3,5/5 (757)
Bande annonce :

120db9334ccbbcc97c5c2a41189a114c

19382913″>Cliquez-ici pour voir la bande annonce 120db9334ccbbcc97c5c2a41189a114c »> 19382913

120db9334ccbbcc97c5c2a41189a114c

Star Trek II : La Colère de Khan

L’équipe de l’Enterprise croise la route de Khan, un vieil ennemi fermement résolu à se venger de l’amiral Kirk qui l’avait banni sur une planète déserte. Pour accomplir son dessein, il s’empare du célèbre vaisseau afin de transporter une arme extrêmement dangereuse qui pourrait détruire la planète Terre. Aveuglés par la haine qu’ils éprouvent l’un pour l’autre, Kirk et Khan vont alors se livrer un combat à mort dont les dommages pourraient s’avérer collatéraux.
105271″ style= »display:inline; »>

Star Trek II : La Colère de Khan

Format : MKV

Star Trek II : La Colère de Khan

Star Trek II : La Colère de Khan 1982 MULTI.BRRip.x264.AC3-HuSh

(1370 Mo)

Uptobox
Télécharger

Uploaded
Télécharger

TurboBit
Télécharger

Rapidgator
Télécharger

Uplea
Télécharger

1fichier
Télécharger

NFO :

Afficher / Masquer le texte 8be9697983ed8f658c730b09e2660450″ class= »text_spoiler » style= »display:none; »>■General

Unique ID : 228457711428729197518235681049985481762 (0xABDF5AD0AD9F0C878BEBA2A8AF24FC22)

Complete name : H:Star.Trek.2.La.Colere.De.Khan.1982.MULTI.BRRip.x264.AC3-HuShStar.Trek.2.La.Colere.De.Khan.1982.MULTI.BRRip.x264.AC3-HuSh.mkv

Format : Matroska

Format version : Version 4 / Version 2

File size : 1.37 GiB

Duration : 1h 53mn

Overall bit rate mode : Variable

Overall bit rate : 1 733 Kbps

Movie name : Star.Trek.2.La.Colere.De.Khan.1982.MULTI.BRRip.x264.AC3-HuSh

Encoded date : UTC 2014-04-05 12:30:27

Writing application : mkvmerge v6.0.0 (‘Coming Up For Air’) built on Jan 20 2013 09:52:00

Writing library : libebml v1.3.0 + libmatroska v1.4.0

Video

ID : 1

Format : AVC

Format/Info : Advanced Video Codec

Format profile : [email protected]

Format settings, CABAC : Yes

Format settings, ReFrames : 8 frames

Codec ID : V_MPEG4/ISO/AVC

Duration : 1h 53mn

Bit rate mode : Variable

Bit rate : 1 059 Kbps

Maximum bit rate : 17.5 Mbps

Width : 688 pixels

Height : 288 pixels

Display aspect ratio : 2.40:1

Original display aspect rat : 2.40:1

Frame rate mode : Constant

Frame rate : 23.976 fps

Color space : YUV

Chroma subsampling : 4:2:0

Bit depth : 8 bits

Scan type : Progressive

Bits/(Pixel*Frame) : 0.223

Stream size : 830 MiB (59%)

Writing library : x264 core 142 r2409

Encoding settings : cabac=1 / ref=8 / deblock=1:-1:-1 / analyse=0x3:0x133 / me=umh / subme=9 / psy=1 / psy_rd=1.00:0.00 / mixed_ref=1 / me_range=32 / chroma_me=1 / trellis=2 / 8x8dct=1 / cqm=0 / deadzone=21,11 / fast_pskip=0 / chroma_qp_offset=-2 / threads=6 / lookahead_threads=1 / sliced_threads=0 / nr=0 / decimate=1 / interlaced=0 / bluray_compat=0 / constrained_intra=0 / bframes=3 / b_pyramid=2 / b_adapt=2 / b_bias=0 / direct=3 / weightb=1 / open_gop=0 / weightp=2 / keyint=230 / keyint_min=23 / scenecut=40 / intra_refresh=0 / rc_lookahead=60 / rc=2pass / mbtree=1 / bitrate=1059 / ratetol=1.0 / qcomp=0.60 / qpmin=10 / qpmax=69 / qpstep=4 / cplxblur=20.0 / qblur=0.5 / vbv_maxrate=17500 / vbv_bufsize=17500 / nal_hrd=vbr / filler=0 / ip_ratio=1.40 / aq=1:1.00

Language : English

Default : Yes

Forced : No

Audio #1

ID : 2

Format : AC-3

Format/Info : Audio Coding 3

Mode extension : CM (complete main)

Format settings, Endianness : Big

Codec ID : A_AC3

Duration : 1h 53mn

Bit rate mode : Constant

Bit rate : 224 Kbps

Channel(s) : 2 channels

Channel positions : Front: L R

Sampling rate : 48.0 KHz

Compression mode : Lossy

Delay relative to video : -5ms

Stream size : 181 MiB (13%)

Title : AC3 – 2 Canaux

Language : French

Default : Yes

Forced : No

Audio #2

ID : 3

Format : AC-3

Format/Info : Audio Coding 3

Mode extension : CM (complete main)

Format settings, Endianness : Big

Codec ID : A_AC3

Duration : 1h 53mn

Bit rate mode : Constant

Bit rate : 448 Kbps

Channel(s) : 6 channels

Channel positions : Front: L C R, Side: L R, LFE

Sampling rate : 48.0 KHz

Compression mode : Lossy

Delay relative to video : -5ms

Stream size : 362 MiB (26%)

Title : AC3 – 6 Canaux

Language : English

Default : No

Forced : No

Text #1

ID : 4

Format : UTF-8

Codec ID : S_TEXT/UTF8

Codec ID/Info : UTF-8 Plain Text

Title : Franτais Forcé

Language : French

Default : Yes

Forced : No

Text #2

ID : 5

Format : UTF-8

Codec ID : S_TEXT/UTF8

Codec ID/Info : UTF-8 Plain Text

Title : Franτais

Language : French

Default : No

Forced : No

Jeux Gratuit
15354131_1854970838071206_1069261547_o.png