Telecharger Star Trek : Le Film [DVDRiP] French

(TRUEFRENCH = Vraie voix française)

Qualité BDRiP mkv | MULTiLANGUES (Avec TRUEFRENCH)

Star Trek : Le Film

Star Trek : Le Film

Origine du film : Américain
Réalisateur : Robert Wise
Acteurs : William Shatner, Leonard Nimoy, DeForest Kelley
Genre : Science fiction, Action, Aventure
Durée : 2h10min
Date de sortie : 27 mars 1980
Année de production : 1979
Titre Original : Star Trek: The Motion Picture
Note spectateurs : Star Trek : Le Film

; »>3,4/5 (944)
Bande annonce :

90bf3726ff7c037c68b4ffbf473b5547

19380351″>Cliquez-ici pour voir la bande annonce 90bf3726ff7c037c68b4ffbf473b5547″> 19380351

90bf3726ff7c037c68b4ffbf473b5547

Star Trek : Le Film

Une entité d’origine extra-terrestre sans précédent se dirige vers la Terre en détruisant tout sur son passage. L’équipage de l’USS Enterprise est chargé de stopper ce nouvel ennemi. Alors que le Capitaine Decker se prépare à diriger la mission, il est relevé de ses fonctions et remplacé par le fameux Amiral Kirk, absent des commandes du vaisseau depuis trois ans…
101650″ style= »display:inline; »>

Star Trek : Le Film

Format : MKV

Star Trek : Le Film

Star Trek Le Film 1979 MULTI.BRRip.x264.AC3-HuSh

(1370 Mo)

Uptobox
Télécharger

Uploaded
Télécharger

TurboBit
Télécharger

Rapidgator
Télécharger

Uplea
Télécharger

1fichier
Télécharger

NFO :

Afficher / Masquer le texte 63121f00aeda325c65799aa8e5b935d3″ class= »text_spoiler » style= »display:none; »>■General

Unique ID : 229539925217677160340263171266232248098 (0xACAFC81310B65B9B88067DF770ACE722)

Complete name : G:TorrentStar.Trek.Le.Film.1979.MULTI.BRRip.x264.AC3-HuShStar.Trek.Le.Film.1979.MULTI.BRRip.x264.AC3-HuSh.mkv

Format : Matroska

Format version : Version 4 / Version 2

File size : 1.37 GiB

Duration : 2h 12mn

Overall bit rate mode : Variable

Overall bit rate : 1 484 Kbps

Movie name : Star.Trek.Le.Film.1979.MULTI.BRRip.x264.AC3-HuSh

Encoded date : UTC 2014-04-04 21:28:21

Writing application : mkvmerge v6.0.0 (‘Coming Up For Air’) built on Jan 20 2013 09:52:00

Writing library : libebml v1.3.0 + libmatroska v1.4.0

Video

ID : 1

Format : AVC

Format/Info : Advanced Video Codec

Format profile : [email protected]

Format settings, CABAC : Yes

Format settings, ReFrames : 8 frames

Codec ID : V_MPEG4/ISO/AVC

Duration : 2h 12mn

Bit rate mode : Variable

Bit rate : 874 Kbps

Maximum bit rate : 17.5 Mbps

Width : 720 pixels

Height : 304 pixels

Display aspect ratio : 2.35:1

Original display aspect rat : 2.35:1

Frame rate mode : Constant

Frame rate : 23.976 fps

Color space : YUV

Chroma subsampling : 4:2:0

Bit depth : 8 bits

Scan type : Progressive

Bits/(Pixel*Frame) : 0.167

Stream size : 799 MiB (57%)

Writing library : x264 core 142 r2409

Encoding settings : cabac=1 / ref=8 / deblock=1:-1:-1 / analyse=0x3:0x133 / me=umh / subme=9 / psy=1 / psy_rd=1.00:0.00 / mixed_ref=1 / me_range=32 / chroma_me=1 / trellis=2 / 8x8dct=1 / cqm=0 / deadzone=21,11 / fast_pskip=0 / chroma_qp_offset=-2 / threads=6 / lookahead_threads=1 / sliced_threads=0 / nr=0 / decimate=1 / interlaced=0 / bluray_compat=0 / constrained_intra=0 / bframes=3 / b_pyramid=2 / b_adapt=2 / b_bias=0 / direct=3 / weightb=1 / open_gop=0 / weightp=2 / keyint=230 / keyint_min=23 / scenecut=40 / intra_refresh=0 / rc_lookahead=60 / rc=2pass / mbtree=1 / bitrate=874 / ratetol=1.0 / qcomp=0.60 / qpmin=10 / qpmax=69 / qpstep=4 / cplxblur=20.0 / qblur=0.5 / vbv_maxrate=17500 / vbv_bufsize=17500 / nal_hrd=vbr / filler=0 / ip_ratio=1.40 / aq=1:1.00

Language : English

Default : Yes

Forced : No

Audio #1

ID : 2

Format : AC-3

Format/Info : Audio Coding 3

Mode extension : CM (complete main)

Format settings, Endianness : Big

Codec ID : A_AC3

Duration : 2h 12mn

Bit rate mode : Constant

Bit rate : 224 Kbps

Channel(s) : 2 channels

Channel positions : Front: L R

Sampling rate : 48.0 KHz

Compression mode : Lossy

Delay relative to video : -5ms

Stream size : 211 MiB (15%)

Title : AC 3 – 2 Canaux

Language : French

Default : Yes

Forced : No

Audio #2

ID : 3

Format : AC-3

Format/Info : Audio Coding 3

Mode extension : CM (complete main)

Format settings, Endianness : Big

Codec ID : A_AC3

Duration : 2h 12mn

Bit rate mode : Constant

Bit rate : 384 Kbps

Channel(s) : 6 channels

Channel positions : Front: L C R, Side: L R, LFE

Sampling rate : 48.0 KHz

Compression mode : Lossy

Delay relative to video : -5ms

Stream size : 363 MiB (26%)

Title : AC3 – 6 Canaux

Language : English

Default : No

Forced : No

Text #1

ID : 4

Format : UTF-8

Codec ID : S_TEXT/UTF8

Codec ID/Info : UTF-8 Plain Text

Title : Franτais Forcé

Language : French

Default : Yes

Forced : No

Text #2

ID : 5

Format : UTF-8

Codec ID : S_TEXT/UTF8

Codec ID/Info : UTF-8 Plain Text

Title : Franτais

Language : French

Default : No

Forced : No