Telecharger Star Wars : Episode I – La Menace fantôme [BLURAY 720p] French

Qualité BLURAY 720p | MULTiLANGUES (Avec TRUEFRENCH) | son DTS

Star Wars : Episode I - La Menace fantôme

Star Wars : Episode I - La Menace fantôme

Star Wars : Episode I - La Menace fantôme

Origine du film : Américain
Réalisateur : George Lucas
Acteurs : Liam Neeson, Ewan McGregor, Natalie Portman
Genre : Science fiction, Aventure, Fantastique
Durée : 2h13min
Date de sortie : 13 octobre 1999
Année de production : 1999
Titre Original : Star Wars: Episode I – The Phantom Menace
Distribué par : Twentieth Century Fox France
Note presse : Star Wars : Episode I - La Menace fantôme 3,1/5
Note spectateurs : Star Wars : Episode I - La Menace fantôme 3,9/5 (34 652)
Bande annonce :

76e23c4c9291ace2908cee9d1697382b

19259278″>Cliquez-ici pour voir la bande annonce 76e23c4c9291ace2908cee9d1697382b »> 19259278

76e23c4c9291ace2908cee9d1697382b

Star Wars : Episode I - La Menace fantôme

Avant de devenir un célèbre chevalier Jedi, et bien avant de se révéler l’âme la plus noire de la galaxie, Anakin Skywalker est un jeune esclave sur la planète Tatooine. La Force est déjà puissante en lui et il est un remarquable pilote de Podracer. Le maître Jedi Qui-Gon Jinn le découvre et entrevoit alors son immense potentiel. Pendant ce temps, l’armée de droïdes de l’insatiable Fédération du Commerce a envahi Naboo, une planète pacifique, dans le cadre d’un plan secret des Sith visant à accroître leur pouvoir. Pour défendre la reine de Naboo, Amidala, les chevaliers Jedi vont devoir affronter le redoutable Seigneur Sith, Dark Maul.
7235″ style= »display:inline; »>

Star Wars : Episode I - La Menace fantôme

Format : x264
Découpé avec : Winrar

Star Wars : Episode I - La Menace fantôme

Star Wars Episode I – La Menace fantôme 1999 720p BluRay MULTi DTS-ES x264-PULSE

(6751 Mo)

[Liens Interchangeables entre hébergeurs: 6x 1000 Mo + 1x 751 Mo]

Uptobox
Télécharger

Uplea
Télécharger

1fichier
Télécharger

Uploaded
Télécharger

Rapidgator
Télécharger

TurboBit
Télécharger

[Liens PREMIUM]

Uptobox
Télécharger

Uplea
Télécharger

1fichier
Télécharger

Uploaded
Partie 1
Partie 2

Rapidgator
Partie 1
Partie 2

TurboBit
Télécharger

NFO :

Afficher / Masquer le texte 89ca15f71bad7cd3657e28cb03c29056″ class= »text_spoiler » style= »display:none; »>General
Complete name : Star.Wars.1977-2005.720p.BluRay.MULTi.DTS-ES.x264-PULSE
Format : Matroska
Format version : Version 2
File size : 6.59 GiB
Duration : 2h 16mn
Overall bit rate : 6 931 Kbps
Encoded date : UTC 2011-09-19 16:25:20
Writing application : mkvmerge v3.4.0 (‘Rapunzel’) built on May 15 2010 09:38:20
Writing library : libebml v0.8.0 + libmatroska v0.9.0

Video
ID : 1
Format : AVC
Format/Info : Advanced Video Codec
Format profile : [email protected]
Format settings, CABAC : Yes
Format settings, ReFrames : 9 frames
Codec ID : V_MPEG4/ISO/AVC
Duration : 2h 16mn
Bit rate : 4 650 Kbps
Width : 1 280 pixels
Height : 720 pixels
Display aspect ratio : 16:9
Frame rate : 23.976 fps
Color space : YUV
Chroma subsampling : 4:2:0
Bit depth : 8 bits
Scan type : Progressive
Bits/(Pixel*Frame) : 0.210
Stream size : 4.31 GiB (65%)
Title : SW Episode I – La Menace fant⌠me 1999 720p BluRay MULTi DTS-ES x264-PULSE
Writing library : x264 core 116 r2044 392e762
Language : English
Default : No
Forced : No
Color primaries : BT.709-5, BT.1361, IEC 61966-2-4, SMPTE RP177
Transfer characteristics : BT.709-5, BT.1361
Matrix coefficients : BT.709-5, BT.1361, IEC 61966-2-4 709, SMPTE RP177

Audio #1
ID : 2
Format : DTS
Format/Info : Digital Theater Systems
Codec ID : A_DTS
Duration : 2h 16mn
Bit rate mode : Constant
Bit rate : 754 Kbps
Channel(s) : 6 channels
Channel positions : Front: L C R, Side: L R, LFE
Sampling rate : 48.0 KHz
Bit depth : 24 bits
Compression mode : Lossy
Stream size : 735 MiB (11%)
Title : VFF DTS 5.1 @ 768 Kbps
Language : French
Default : Yes
Forced : No

Audio #2
ID : 3
Format : DTS
Format/Info : Digital Theater Systems
Format profile : ES
Codec ID : A_DTS
Duration : 2h 16mn
Bit rate mode : Constant
Bit rate : 1 510 Kbps
Channel(s) : 7 channels / 6 channels
Channel positions : Front: L C R, Side: L R, Back: C, LFE / Front: L C R, Side: L R, LFE
Sampling rate : 48.0 KHz
Bit depth : 24 bits
Compression mode : Lossy
Stream size : 1.44 GiB (22%)
Title : DTS-ES 6.1 @ 1509 Kbps
Language : English
Default : No
Forced : No

Text #1
ID : 4
Format : UTF-8
Codec ID : S_TEXT/UTF8
Codec ID/Info : UTF-8 Plain Text
Title : Forces
Language : French
Default : Yes
Forced : No

Text #2
ID : 5
Format : UTF-8
Codec ID : S_TEXT/UTF8
Codec ID/Info : UTF-8 Plain Text
Title : Complets
Language : French
Default : No
Forced : No

Jeux Gratuit
15354131_1854970838071206_1069261547_o.png