Telecharger Star Wars : Episode IV – Un nouvel espoir (La Guerre des étoiles) [DVDRiP] French

Qualité BLURAY 1080p | MULTiLANGUES (Avec TRUEFRENCH) | son DTS

Star Wars : Episode IV - Un nouvel espoir (La Guerre des étoiles)

Star Wars : Episode IV - Un nouvel espoir (La Guerre des étoiles)

Origine du film : Américain
Réalisateur : George Lucas
Acteurs : Mark Hamill, Harrison Ford, Carrie Fisher
Genre : Science fiction, Aventure, Fantastique
Durée : 2h 01min
Date de sortie : 19 octobre 1977
Année de production : 1977
Titre Original :
Star Wars: Episode IV – A New Hope
Distribué par :
Note presse : Star Wars : Episode IV - Un nouvel espoir (La Guerre des étoiles) 4,5/5
Note spectateurs : Star Wars : Episode IV - Un nouvel espoir (La Guerre des étoiles)

; »>4,4/5 (45662)
Bande annonce :

6aac82aff4bd5c7d04bd1d33ab88a10b

19545408″>Cliquez-ici pour voir la bande annonce 6aac82aff4bd5c7d04bd1d33ab88a10b »> 19545408

6aac82aff4bd5c7d04bd1d33ab88a10b

Star Wars : Episode IV - Un nouvel espoir (La Guerre des étoiles)

Il y a bien longtemps, dans une galaxie très lointaine… La guerre civile fait rage entre l’Empire galactique et l’Alliance rebelle. Capturée par les troupes de choc de l’Empereur menées par le sombre et impitoyable Dark Vador, la princesse Leia Organa dissimule les plans de l’Etoile Noire, une station spatiale invulnérable, à son droïde R2-D2 avec pour mission de les remettre au Jedi Obi-Wan Kenobi. Accompagné de son fidèle compagnon, le droïde de protocole C-3PO, R2-D2 s’échoue sur la planète Tatooine et termine sa quête chez le jeune Luke Skywalker. Rêvant de devenir pilote mais confiné aux travaux de la ferme, ce dernier se lance à la recherche de ce mystérieux Obi-Wan Kenobi, devenu ermite au coeur des montagnes désertiques de Tatooine… 79480″ style= »display:inline; »>

Star Wars : Episode IV - Un nouvel espoir (La Guerre des étoiles)

Format : x264
Découpé avec : Winrar

Star Wars : Episode IV - Un nouvel espoir (La Guerre des étoiles)

Star.Wars.Episode.IV.A.New.Hope.1977.MULTi.1080p.BluRay.x264-LOST

(10073 Mo)

[Liens Interchangeables entre hébergeurs: 10x 1000 Mo + 1x 73 Mo]

Uptobox
Télécharger

Uplea
Télécharger

1fichier
Télécharger

Uploaded
Télécharger

Rapidgator
Télécharger

TurboBit
Télécharger

[Liens PREMIUM]

Uptobox
Télécharger

Uplea
Télécharger

1fichier
Télécharger

Uploaded
Partie 1
Partie 2
Partie 3

Rapidgator
Partie 1
Partie 2
Partie 3

TurboBit
Télécharger

NFO :

Afficher / Masquer le texte da673855b3ce353b83b6a8ff1e15b068″ class= »text_spoiler » style= »display:none; »>General
Format : Matroska
Format version : Version 2
File size : 9.84 GiB
Duration : 2h 4mn
Overall bit rate : 11.3 Mbps
Writing application : x264.exe
Writing library : mkv2rls v1.3 (date: 2010 aug 28)

Video
ID : 1
Format : AVC
Format/Info : Advanced Video Codec
Format profile : [email protected]
Format settings, CABAC : Yes
Format settings, ReFrames : 5 frames
Codec ID : V_MPEG4/ISO/AVC
Duration : 2h 4mn
Bit rate : 9 010 Kbps
Width : 1 920 pixels
Height : 816 pixels
Display aspect ratio : 2.35:1
Frame rate mode : Constant
Frame rate : 23.976 fps
Color space : YUV
Chroma subsampling : 4:2:0
Bit depth : 8 bits
Scan type : Progressive
Bits/(Pixel*Frame) : 0.240
Stream size : 7.66 GiB (78%)
Writing library : x264 core 116 r2057 0ba8a9c
Encoding settings : cabac=1 / ref=5 / deblock=1:0:0 / analyse=0x3:0x113 / me=umh / subme=7 / psy=1 / psy_rd=1.00:0.15 / mixed_ref=1 / me_range=16 / chroma_me=1 / trellis=1 / 8x8dct=1 / cqm=0 / deadzone=21,11 / fast_pskip=0 / chroma_qp_offset=-3 / threads=12 / sliced_threads=0 / nr=0 / decimate=1 / interlaced=0 / bluray_compat=0 / constrained_intra=0 / bframes=3 / b_pyramid=2 / b_adapt=1 / b_bias=0 / direct=1 / weightb=1 / open_gop=0 / weightp=2 / keyint=250 / keyint_min=23 / scenecut=40 / intra_refresh=0 / rc_lookahead=40 / rc=2pass / mbtree=1 / bitrate=9010 / ratetol=1.0 / qcomp=0.60 / qpmin=0 / qpmax=69 / qpstep=4 / cplxblur=20.0 / qblur=0.5 / ip_ratio=1.40 / aq=1:1.00
Language : English
Default : Yes
Forced : No

Audio #1
ID : 2
Format : DTS
Format/Info : Digital Theater Systems
Mode : 16
Format settings, Endianness : Big
Codec ID : A_DTS
Duration : 2h 4mn
Bit rate mode : Constant
Bit rate : 768 Kbps
Channel(s) : 6 channels
Channel positions : Front: L C R, Side: L R, LFE
Sampling rate : 48.0 KHz
Bit depth : 24 bits
Compression mode : Lossy
Stream size : 685 MiB (7%)
Title : French DTS 754kbps
Language : French
Default : Yes
Forced : No

Audio #2
ID : 3
Format : DTS
Format/Info : Digital Theater Systems
Format profile : ES
Mode : 16
Format settings, Endianness : Big
Codec ID : A_DTS
Duration : 2h 4mn
Bit rate mode : Constant
Bit rate : 1 509 Kbps
Channel(s) : 7 channels / 6 channels
Channel positions : Front: L C R, Side: L R, Back: C, LFE / Front: L C R, Side: L R, LFE
Sampling rate : 48.0 KHz
Bit depth : 24 bits
Compression mode : Lossy
Stream size : 1.31 GiB (13%)
Title : English DTS 1509kbps
Language : English
Default : Yes
Forced : No

Text #1
ID : 4
Format : UTF-8
Codec ID : S_TEXT/UTF8
Codec ID/Info : UTF-8 Plain Text
Title : French
Language : French
Default : No
Forced : Yes

Text #2
ID : 5
Format : UTF-8
Codec ID : S_TEXT/UTF8
Codec ID/Info : UTF-8 Plain Text
Title : French
Language : French
Default : No
Forced : No

Menu
00:00:00.000 : en:00:00:00.000
00:00:21.021 : en:00:00:21.021
00:01:53.405 : en:00:01:53.405
00:04:52.792 : en:00:04:52.792
00:07:28.281 : en:00:07:28.281
00:08:54.868 : en:00:08:54.868
00:11:21.389 : en:00:11:21.389
00:15:40.231 : en:00:15:40.231
00:19:40.179 : en:00:19:40.179
00:23:33.203 : en:00:23:33.203
00:25:32.614 : en:00:25:32.614
00:27:45.497 : en:00:27:45.497
00:29:12.709 : en:00:29:12.709
00:32:34.077 : en:00:32:34.077
00:34:53.008 : en:00:34:53.008
00:36:54.212 : en:00:36:54.212
00:39:05.635 : en:00:39:05.635
00:41:42.291 : en:00:41:42.291
00:42:31.549 : en:00:42:31.549
00:44:51.731 : en:00:44:51.731
00:47:52.620 : en:00:47:52.620
00:49:57.995 : en:00:49:57.995
00:51:13.696 : en:00:51:13.696
00:52:40.741 : en:00:52:40.741
00:54:12.332 : en:00:54:12.332
00:56:59.916 : en:00:56:59.916
00:59:14.176 : en:00:59:14.176
01:03:10.829 : en:01:03:10.829
01:06:16.472 : en:01:06:16.472
01:08:21.973 : en:01:08:21.973
01:12:32.390 : en:01:12:32.390
01:14:12.657 : en:01:14:12.657
01:17:13.712 : en:01:17:13.712
01:19:09.328 : en:01:19:09.328
01:21:29.384 : en:01:21:29.384
01:25:00.220 : en:01:25:00.220
01:27:02.092 : en:01:27:02.092
01:29:56.182 : en:01:29:56.182
01:33:48.456 : en:01:33:48.456
01:36:39.877 : en:01:36:39.877
01:38:06.756 : en:01:38:06.756
01:39:37.513 : en:01:39:37.513
01:41:24.996 : en:01:41:24.996
01:42:37.401 : en:01:42:37.401
01:45:02.630 : en:01:45:02.630
01:49:42.785 : en:01:49:42.785
01:55:18.912 : en:01:55:18.912
01:57:47.394 : en:01:57:47.394
01:58:28.518 : en:01:58:28.518
02:00:14.499 : en:02:00:14.499