Telecharger Star Wars : Episode V – L'Empire contre-attaque [DVDRiP] French

Qualité BLURAY 1080p | MULTiLANGUES (Avec TRUEFRENCH) | son DTS

Star Wars : Episode V - L'Empire contre-attaque

Star Wars : Episode V - L'Empire contre-attaque

Origine du film : Américain
Réalisateur : Irvin Kershner
Acteurs : Mark Hamill, Harrison Ford, Carrie Fisher
Genre : Science fiction, Aventure, Fantastique
Durée : 2h 04min
Date de sortie : 20 août 1980
Année de production : 1980
Titre Original :
Star Wars: Episode V – The Empire Strikes Back
Distribué par :
Note presse : Star Wars : Episode V - L'Empire contre-attaque 5,0/5
Note spectateurs : Star Wars : Episode V - L'Empire contre-attaque

; »>4,5/5 (46952)
Bande annonce :

a696661cbe427804c73c6ee49f1bf11e

19538979″>Cliquez-ici pour voir la bande annonce a696661cbe427804c73c6ee49f1bf11e »> 19538979

a696661cbe427804c73c6ee49f1bf11e

Star Wars : Episode V - L'Empire contre-attaque

Malgré la destruction de l’Etoile Noire, l’Empire maintient son emprise sur la galaxie, et poursuit sans relâche sa lutte contre l’Alliance rebelle. Basés sur la planète glacée de Hoth, les rebelles essuient un assaut des troupes impériales. Parvenus à s’échapper, la princesse Leia, Han Solo, Chewbacca et C-3P0 se dirigent vers Bespin, la cité des nuages gouvernée par Lando Calrissian, ancien compagnon de Han. Suivant les instructions d’Obi-Wan Kenobi, Luke Skywalker se rend quant à lui vers le système de Dagobah, planète marécageuse où il doit recevoir l’enseignement du dernier maître Jedi, Yoda. Apprenant l’arrestation de ses compagnons par les stormtroopers de Dark Vador après la trahison de Lando, Luke décide d’interrompre son entraînement pour porter secours à ses amis et affronter le sombre seigneur Sith… 79739″ style= »display:inline; »>

Star Wars : Episode V - L'Empire contre-attaque

Format : x264
Découpé avec : Winrar

Star Wars : Episode V - L'Empire contre-attaque

Star.Wars.Episode.V.The.Empire.Strikes.Back.1980.FRENCH.1080p.BluRay.x264-LOST

(10071 Mo)

[Liens Interchangeables entre hébergeurs: 10x 1000 Mo + 1x 71 Mo]

Uptobox
Télécharger

Uplea
Télécharger

1fichier
Télécharger

Uploaded
Télécharger

Rapidgator
Télécharger

TurboBit
Télécharger

[Liens PREMIUM]

Uptobox
Télécharger

Uplea
Télécharger

1fichier
Télécharger

Uploaded
Partie 1
Partie 2
Partie 3

Rapidgator
Partie 1
Partie 2
Partie 3

TurboBit
Télécharger

NFO :

Afficher / Masquer le texte 8f99a728efe56831a3cbbff4d88a2979″ class= »text_spoiler » style= »display:none; »>General
Format : Matroska
Format version : Version 2
File size : 9.84 GiB
Duration : 2h 7mn
Overall bit rate : 11.1 Mbps
Writing application : x264.exe
Writing library : mkv2rls v1.3 (date: 2010 aug 28)

Video
ID : 1
Format : AVC
Format/Info : Advanced Video Codec
Format profile : [email protected]
Format settings, CABAC : Yes
Format settings, ReFrames : 5 frames
Codec ID : V_MPEG4/ISO/AVC
Duration : 2h 7mn
Bit rate : 8 776 Kbps
Width : 1 920 pixels
Height : 816 pixels
Display aspect ratio : 2.35:1
Frame rate mode : Constant
Frame rate : 23.976 fps
Color space : YUV
Chroma subsampling : 4:2:0
Bit depth : 8 bits
Scan type : Progressive
Bits/(Pixel*Frame) : 0.234
Stream size : 7.61 GiB (77%)
Writing library : x264 core 116 r2074 2641b9e
Encoding settings : cabac=1 / ref=5 / deblock=1:0:0 / analyse=0x3:0x113 / me=umh / subme=7 / psy=1 / psy_rd=1.00:0.15 / mixed_ref=1 / me_range=16 / chroma_me=1 / trellis=1 / 8x8dct=1 / cqm=0 / deadzone=21,11 / fast_pskip=0 / chroma_qp_offset=-3 / threads=18 / sliced_threads=0 / nr=0 / decimate=1 / interlaced=0 / bluray_compat=0 / constrained_intra=0 / bframes=3 / b_pyramid=2 / b_adapt=1 / b_bias=0 / direct=1 / weightb=1 / open_gop=0 / weightp=2 / keyint=250 / keyint_min=23 / scenecut=40 / intra_refresh=0 / rc_lookahead=40 / rc=2pass / mbtree=1 / bitrate=8776 / ratetol=1.0 / qcomp=0.60 / qpmin=0 / qpmax=69 / qpstep=4 / cplxblur=20.0 / qblur=0.5 / ip_ratio=1.40 / aq=1:1.00
Language : English
Default : Yes
Forced : No

Audio #1
ID : 2
Format : DTS
Format/Info : Digital Theater Systems
Mode : 16
Format settings, Endianness : Big
Codec ID : A_DTS
Duration : 2h 7mn
Bit rate mode : Constant
Bit rate : 768 Kbps
Channel(s) : 6 channels
Channel positions : Front: L C R, Side: L R, LFE
Sampling rate : 48.0 KHz
Bit depth : 24 bits
Compression mode : Lossy
Stream size : 700 MiB (7%)
Title : French DTS 754kbps
Language : French
Default : Yes
Forced : No

Audio #2
ID : 3
Format : DTS
Format/Info : Digital Theater Systems
Format profile : ES
Mode : 16
Format settings, Endianness : Big
Codec ID : A_DTS
Duration : 2h 7mn
Bit rate mode : Constant
Bit rate : 1 509 Kbps
Channel(s) : 7 channels / 6 channels
Channel positions : Front: L C R, Side: L R, Back: C, LFE / Front: L C R, Side: L R, LFE
Sampling rate : 48.0 KHz
Bit depth : 24 bits
Compression mode : Lossy
Stream size : 1.34 GiB (14%)
Title : English DTS 1509kbps
Language : English
Default : Yes
Forced : No

Text #1
ID : 4
Format : UTF-8
Codec ID : S_TEXT/UTF8
Codec ID/Info : UTF-8 Plain Text
Title : French
Language : French
Default : No
Forced : No

Text #2
ID : 5
Format : UTF-8
Codec ID : S_TEXT/UTF8
Codec ID/Info : UTF-8 Plain Text
Title : English
Language : English
Default : No
Forced : No

Menu
00:00:00.000 : en:00:00:00.000
00:00:21.021 : en:00:00:21.021
00:00:21.104 : en:00:00:21.104
00:01:54.781 : en:00:01:54.781
00:01:54.865 : en:00:01:54.865
00:04:15.755 : en:00:04:15.755
00:04:15.839 : en:00:04:15.839
00:08:19.165 : en:00:08:19.165
00:08:19.249 : en:00:08:19.249
00:10:15.865 : en:00:10:15.865
00:10:15.949 : en:00:10:15.949
00:12:57.652 : en:00:12:57.652
00:12:57.735 : en:00:12:57.735
00:15:13.454 : en:00:15:13.454
00:15:13.538 : en:00:15:13.538
00:16:29.614 : en:00:16:29.614
00:16:29.697 : en:00:16:29.697
00:18:19.890 : en:00:18:19.890
00:18:19.974 : en:00:18:19.974
00:19:45.309 : en:00:19:45.309
00:19:45.393 : en:00:19:45.393
00:21:22.615 : en:00:21:22.615
00:21:22.698 : en:00:21:22.698
00:23:57.645 : en:00:23:57.645
00:23:57.728 : en:00:23:57.728
00:25:49.339 : en:00:25:49.339
00:25:49.423 : en:00:25:49.423
00:29:29.267 : en:00:29:29.267
00:29:29.351 : en:00:29:29.351
00:31:29.137 : en:00:31:29.137
00:31:29.221 : en:00:31:29.221
00:33:37.599 : en:00:33:37.599
00:33:37.682 : en:00:33:37.682
00:35:55.070 : en:00:35:55.070
00:35:55.153 : en:00:35:55.153
00:36:51.167 : en:00:36:51.167
00:36:51.251 : en:00:36:51.251
00:38:33.478 : en:00:38:33.478
00:38:33.561 : en:00:38:33.561
00:40:36.643 : en:00:40:36.643
00:40:36.726 : en:00:40:36.726
00:44:19.991 : en:00:44:19.991
00:44:20.074 : en:00:44:20.074
00:46:08.307 : en:00:46:08.307
00:46:08.391 : en:00:46:08.391
00:50:13.302 : en:00:50:13.302
00:50:13.385 : en:00:50:13.385
00:52:16.550 : en:00:52:16.550
00:52:16.633 : en:00:52:16.633
00:54:20.174 : en:00:54:20.174
00:54:20.257 : en:00:54:20.257
00:57:40.207 : en:00:57:40.207
00:57:40.290 : en:00:57:40.290
01:00:57.863 : en:01:00:57.863
01:00:57.946 : en:01:00:57.946
01:03:42.694 : en:01:03:42.694
01:03:42.777 : en:01:03:42.777
01:05:46.025 : en:01:05:46.025
01:05:46.109 : en:01:05:46.109
01:08:12.088 : en:01:08:12.088
01:08:12.171 : en:01:08:12.171
01:13:24.150 : en:01:13:24.150
01:13:24.233 : en:01:13:24.233
01:16:39.804 : en:01:16:39.804
01:16:39.887 : en:01:16:39.887
01:18:24.033 : en:01:18:24.033
01:18:24.116 : en:01:18:24.116
01:19:45.781 : en:01:19:45.781
01:19:45.864 : en:01:19:45.864
01:22:55.846 : en:01:22:55.846
01:22:55.929 : en:01:22:55.929
01:25:38.467 : en:01:25:38.467
01:25:38.550 : en:01:25:38.550
01:27:51.183 : en:01:27:51.183
01:27:51.266 : en:01:27:51.266
01:30:28.590 : en:01:30:28.590
01:30:28.673 : en:01:30:28.673
01:34:39.716 : en:01:34:39.716
01:34:39.799 : en:01:34:39.799
01:38:28.820 : en:01:38:28.820
01:38:28.903 : en:01:38:28.903
01:40:26.062 : en:01:40:26.062
01:40:26.145 : en:01:40:26.145
01:41:46.017 : en:01:41:46.017
01:41:46.100 : en:01:41:46.100
01:43:51.350 : en:01:43:51.350
01:43:51.434 : en:01:43:51.434
01:47:02.458 : en:01:47:02.458
01:47:02.541 : en:01:47:02.541
01:49:21.388 : en:01:49:21.388
01:49:21.472 : en:01:49:21.472
01:53:41.606 : en:01:53:41.606
01:53:41.690 : en:01:53:41.690
01:56:14.759 : en:01:56:14.759
01:56:14.843 : en:01:56:14.843
01:59:46.513 : en:01:59:46.513
01:59:46.596 : en:01:59:46.596
02:01:58.144 : en:02:01:58.144
02:01:58.228 : en:02:01:58.228
02:07:21.300 : en:02:07:21.300