Telecharger Star Wars : Episode VI – Le Retour du Jedi [DVDRiP] French

Qualité BLURAY 1080p | MULTiLANGUES (Avec TRUEFRENCH) | son DTS

Star Wars : Episode VI - Le Retour du Jedi

Star Wars : Episode VI - Le Retour du Jedi

Origine du film : Américain
Réalisateur : Richard Marquand
Acteurs : Mark Hamill, Harrison Ford, Carrie Fisher
Genre : Science fiction, Aventure, Fantastique
Durée : 2h 13min
Date de sortie : 19 octobre 1983
Année de production : 1983
Titre Original :
Star Wars: Episode VI – Return of the Jedi
Distribué par :
Note presse : Star Wars : Episode VI - Le Retour du Jedi 3,0/5
Note spectateurs : Star Wars : Episode VI - Le Retour du Jedi

; »>4,4/5 (44705)
Bande annonce :

5b517d4b63b527b6837481050696e644

19539237″>Cliquez-ici pour voir la bande annonce 5b517d4b63b527b6837481050696e644″> 19539237

5b517d4b63b527b6837481050696e644

Star Wars : Episode VI - Le Retour du Jedi

L’Empire galactique est plus puissant que jamais : la construction de la nouvelle arme, l’Etoile de la Mort, menace l’univers tout entier… Arrêté après la trahison de Lando Calrissian, Han Solo est remis à l’ignoble contrebandier Jabba Le Hutt par le chasseur de primes Boba Fett. Après l’échec d’une première tentative d’évasion menée par la princesse Leia, également arrêtée par Jabba, Luke Skywalker et Lando parviennent à libérer leurs amis.Han, Leia, Chewbacca, C-3PO et Luke, devenu un Jedi, s’envolent dès lors pour une mission d’extrême importance sur la lune forestière d’Endor, afin de détruire le générateur du bouclier de l’Etoile de la Mort et permettre une attaque des pilotes de l’Alliance rebelle. Conscient d’être un danger pour ses compagnons, Luke préfère se rendre aux mains de Dark Vador, son père et ancien Jedi passé du côté obscur de la Force. 79740″ style= »display:inline; »>

Star Wars : Episode VI - Le Retour du Jedi

Format : x264
Découpé avec : Winrar

Star Wars : Episode VI - Le Retour du Jedi

Star.Wars.Episode.VI.Return.of.the.Jedi.1983.FRENCH.1080p.BluRay.x264-LOST

(11188 Mo)

[Liens Interchangeables entre hébergeurs: 11x 1000 Mo + 1x 188 Mo]

Uptobox
Télécharger

Uplea
Télécharger

1fichier
Télécharger

Uploaded
Télécharger

Rapidgator
Télécharger

TurboBit
Télécharger

[Liens PREMIUM]

Uptobox
Télécharger

Uplea
Télécharger

1fichier
Télécharger

Uploaded
Partie 1
Partie 2
Partie 3

Rapidgator
Partie 1
Partie 2
Partie 3

TurboBit
Télécharger

NFO :

Afficher / Masquer le texte 530fd0cb65af78f06ae05be706c51f42″ class= »text_spoiler » style= »display:none; »>eneral
Format : Matroska
File size : 9,88 Go
Duration : 2h 14mn
Overall bit rate : 25.0 Kbps
Writing application : x264.exe
Writing library : mkv2rls v1.3 (date: 2010 aug 28)

Video
ID : 1
Format : AVC
Format/Info : Advanced Video Codec
Format profile : [email protected]
Format settings, CABAC : Yes
Format settings, ReFrames : 5 frames
Codec ID : V_MPEG4/ISO/AVC
Duration : 2h 14mn
Nominal bit rate : 9 325 Kbps
Width : 1 920 pixels
Height : 816 pixels
Display aspect ratio : 2.35:1
Frame rate : 23.976 fps
Color space : YUV
Chroma subsampling : 4:2:0
Bit depth : 8 bits
Scan type : Progressive
Bits/(Pixel*Frame) : 0.248
Writing library : x264 core 116 r2044 392e762
Encoding settings : cabac=1 / ref=5 / deblock=1:0:0 / analyse=0x3:0x113 / me=umh / subme=7 / psy=1 / psy_rd=1.00:0.15 / mixed_ref=1 / me_range=16 / chroma_me=1 / trellis=1 / 8x8dct=1 / cqm=0 / deadzone=21,11 / fast_pskip=0 / chroma_qp_offset=-3 / threads=6 / sliced_threads=0 / nr=0 / decimate=1 / interlaced=0 / bluray_compat=0 / constrained_intra=0 / bframes=3 / b_pyramid=2 / b_adapt=1 / b_bias=0 / direct=1 / weightb=1 / open_gop=0 / weightp=2 / keyint=250 / keyint_min=23 / scenecut=40 / intra_refresh=0 / rc_lookahead=40 / rc=2pass / mbtree=1 / bitrate=9325 / ratetol=1.0 / qcomp=0.60 / qpmin=0 / qpmax=69 / qpstep=4 / cplxblur=20.0 / qblur=0.5 / ip_ratio=1.40 / aq=1:1.00
Language : English

Audio #1
ID : 2
Format : DTS
Format/Info : Digital Theater Systems
Codec ID : A_DTS
Duration : 2h 14mn
Bit rate mode : Constant
Bit rate : 754 Kbps
Channel(s) : 6 channels
Channel positions : Front: L C R, Side: L R, LFE
Sampling rate : 48.0 KHz
Bit depth : 24 bits
Compression mode : Lossy
Stream size : 727 MiB
Title : French DTS 754kbps
Language : French

Audio #2
ID : 3
Format : DTS
Format/Info : Digital Theater Systems
Format profile : ES
Codec ID : A_DTS
Duration : 2h 14mn
Bit rate mode : Constant
Bit rate : 1 510 Kbps
Channel(s) : 7 channels / 6 channels
Channel positions : Front: L C R, Side: L R, Back: C, LFE / Front: L C R, Side: L R, LFE
Sampling rate : 48.0 KHz
Bit depth : 24 bits
Compression mode : Lossy
Stream size : 1.42 GiB
Title : English DTS 1509kbps
Language : English

Text #1
ID : 4
Format : UTF-8
Codec ID : S_TEXT/UTF8
Codec ID/Info : UTF-8 Plain Text
Title : French Forced
Language : French

Text #2
ID : 5
Format : UTF-8
Codec ID : S_TEXT/UTF8
Codec ID/Info : UTF-8 Plain Text
Title : French
Language : French

Jeux Gratuit
15354131_1854970838071206_1069261547_o.png