Telecharger Sueurs froides [DVDRiP] French

Qualité BDRiP mkv | FRENCH

Sueurs froides

Sueurs froides

Origine du film : Américain
Réalisateur : Alfred Hitchcock
Acteurs : James Stewart, Kim Novak, Barbara Bel Geddes
Genre : Thriller, Drame, Romance
Durée : 2h9min
Date de sortie : 19 mai 2004
Année de production : 1958
Titre Original : Vertigo
Note presse : Sueurs froides 3,8/5
Note spectateurs : Sueurs froides

; »>4,3/5 (6 462)
Bande annonce :

9785760a0b598f96c767451ccd99d821

19456594″>Cliquez-ici pour voir la bande annonce 9785760a0b598f96c767451ccd99d821″> 19456594

9785760a0b598f96c767451ccd99d821

Sueurs froides

Scottie est sujet au vertige, ce qui lui porte préjudice dans son métier de policier. Rendu responsable de la mort d’un de ses collègues, il décide de quitter la police. Une ancienne relation le contacte afin qu’il suive sa femme, possédée selon lui par l’esprit de son aïeule. Scottie s’éprend de la jeune femme et se trouve ballotté par des évènements qu’il ne peut contrôler.
105263″ style= »display:inline; »>

Sueurs froides

Format : MKV
Découpé avec : Winrar
Sous-titres : Forcé pour les passages en langue étrangère.

Sueurs froides

Vertigo.1958.FRENCH.SUBFORCED.BRRip.x264.AC3-FREAKY

(2050 Mo)

[Liens Interchangeables entre hébergeurs: 2x 1000 Mo + 1x 50 Mo]

Uptobox
Télécharger

Uploaded
Télécharger

TurboBit
Télécharger

Rapidgator
Télécharger

Uplea
Télécharger

1fichier
Télécharger

[Lien Premium]

Uptobox
Télécharger

Uploaded
Télécharger

TurboBit
Télécharger

Uplea
Télécharger

1fichier
Télécharger

NFO :

Afficher / Masquer le texte 91866e8e4034869806e3b61ea692c84e » class= »text_spoiler » style= »display:none; »>General
Complete name : Vertigo.1958.FRENCH.SUBFORCED.BRRip.x264.AC3-FREAKY.mkv
Format : Matroska
Format version : Version 2
File size : 2.05 GiB
Duration : 2h 8mn
Overall bit rate : 2 290 Kbps
Writing application : Lavf54.63.104
Writing library : Lavf54.63.104

Video
ID : 1
Format : AVC
Format/Info : Advanced Video Codec
Format profile : [email protected]
Format settings, CABAC : Yes
Format settings, ReFrames : 4 frames
Codec ID : V_MPEG4/ISO/AVC
Duration : 2h 8mn
Bit rate : 1 839 Kbps
Width : 720 pixels
Height : 384 pixels
Display aspect ratio : 1.85:1
Frame rate mode : Constant
Frame rate : 23.976 fps
Color space : YUV
Chroma subsampling : 4:2:0
Bit depth : 8 bits
Scan type : Progressive
Bits/(Pixel*Frame) : 0.277
Stream size : 1.61 GiB (78%)
Writing library : x264 core 123 r2189 35cf912
Encoding settings : cabac=1 / ref=3 / deblock=1:0:0 / analyse=0x3:0x133 / me=umh / subme=8 / psy=1 / psy_rd=1.00:0.00 / mixed_ref=1 / me_range=24 / chroma_me=1 / trellis=1 / 8x8dct=1 / cqm=0 / deadzone=21,11 / fast_pskip=1 / chroma_qp_offset=-2 / threads=3 / sliced_threads=0 / nr=0 / decimate=1 / interlaced=0 / bluray_compat=0 / constrained_intra=0 / bframes=3 / b_pyramid=2 / b_adapt=1 / b_bias=0 / direct=1 / weightb=1 / open_gop=0 / weightp=2 / keyint=250 / keyint_min=25 / scenecut=40 / intra_refresh=0 / rc_lookahead=40 / rc=2pass / mbtree=1 / bitrate=1839 / ratetol=1.0 / qcomp=0.60 / qpmin=10 / qpmax=51 / qpstep=4 / cplxblur=20.0 / qblur=0.5 / ip_ratio=1.40 / aq=1:1.00
Default : Yes
Forced : No

Audio
ID : 2
Format : AC-3
Format/Info : Audio Coding 3
Mode extension : CM (complete main)
Format settings, Endianness : Big
Codec ID : A_AC3
Duration : 2h 8mn
Bit rate mode : Constant
Bit rate : 448 Kbps
Channel(s) : 2 channels
Channel positions : Front: L R
Sampling rate : 48.0 KHz
Compression mode : Lossy
Delay relative to video : 5ms
Stream size : 412 MiB (20%)
Language : French
Default : Yes
Forced : No

Source : Vertigo.1958.MULTi.1080p.BluRay.x264-ROUGH