Télécharger Suite Française Blu-Ray 1080p/720p FRENCH

Qualité BLURAY 1080p | MULTiLANGUES (Avec TRUEFRENCH) | son DTS

Suite Française

Suite Française

Origine du film : Britannique, Français, Belge, Canadien
Réalisateur : Saul Dibb
Acteurs : Michelle Williams, Kristin Scott Thomas, Matthias Schoenaerts
Genre : Drame, Guerre, Romance
Durée : 1h47min
Date de sortie : 1 avril 2015
Année de production : 2014
Distribué par : UGC Distribution
Note presse : Suite Française 2,4/5
Note spectateurs : Suite Française 3,9/5 (747)
Bande annonce :

72d8202625a9a84d071cde84c35c1548

19551057″>Cliquez-ici pour voir la bande annonce 72d8202625a9a84d071cde84c35c1548″> 19551057

72d8202625a9a84d071cde84c35c1548

Suite Française

Été 1940. France. Dans l’attente de nouvelles de son mari prisonnier de guerre, Lucile Angellier mène une existence soumise sous l’oeil inquisiteur de sa belle-mère. L’arrivée de l’armée allemande dans leur village contraint les deux femmes à loger chez elles le lieutenant Bruno von Falk. Lucile tente de l’éviter mais ne peut bientôt plus ignorer l’attirance qu’elle éprouve pour l’officier…
96568″ style= »display:inline; »>

Suite Française

Format : MKV
Découpé avec : Winrar
Sous-titres : Forcé pour les passages en langue étrangère.

Suite Française

Suite.Francaise.2014.MULTi.1080p.BluRay.x264-LOST

(8957 Mo)

[Liens Interchangeables entre hébergeurs: 8x 1000 Mo + 1x 957 Mo]

Uptobox
Télécharger

Uplea
Télécharger

1fichier
Télécharger

Uploaded
Télécharger

Rapidgator
Télécharger

TurboBit
Télécharger

[ Liens Premium ]

Uptobox
Télécharger

Uplea
Télécharger

1fichier
Télécharger

Uploaded
Partie 1
Partie 2

TurboBit
Télécharger

NFO :

Afficher / Masquer le texte 3fd19ef0860811c3d3d16c46796bf721″ class= »text_spoiler » style= »display:none; »>General
Complete name : suite.francaise.2014.multi.1080p.bluray.x264-lost.mkv
Format : Matroska
Format version : Version 2
File size : 8.75 GiB
Duration : 1h 47mn
Overall bit rate : 11.7 Mbps
Writing application : mkvmerge v6.6.0 (‘The Edge Of The In Between’) built on Dec 1 2013 17:55:00
Writing library : libebml v1.3.0 + libmatroska v1.4.1

Video
ID : 1
Format : AVC
Format/Info : Advanced Video Codec
Format profile : [email protected]
Format settings, CABAC : Yes
Format settings, ReFrames : 5 frames
Codec ID : V_MPEG4/ISO/AVC
Duration : 1h 47mn
Bit rate : 8 645 Kbps
Width : 1 920 pixels
Height : 808 pixels
Display aspect ratio : 2.40:1
Frame rate mode : Constant
Frame rate : 24.000 fps
Color space : YUV
Chroma subsampling : 4:2:0
Bit depth : 8 bits
Scan type : Progressive
Bits/(Pixel*Frame) : 0.232
Stream size : 6.31 GiB (72%)
Writing library : x264 core 148 r2597 e86f3a1
Encoding settings : cabac=1 / ref=5 / deblock=1:0:0 / analyse=0x3:0x113 / me=umh / subme=8 / psy=1 / psy_rd=1.00:0.00 / mixed_ref=1 / me_range=16 / chroma_me=1 / trellis=1 / 8x8dct=1 / cqm=0 / deadzone=21,11 / fast_pskip=1 / chroma_qp_offset=-2 / threads=12 / lookahead_threads=2 / sliced_threads=0 / nr=0 / decimate=1 / interlaced=0 / bluray_compat=0 / constrained_intra=0 / bframes=3 / b_pyramid=2 / b_adapt=2 / b_bias=0 / direct=3 / weightb=1 / open_gop=0 / weightp=2 / keyint=240 / keyint_min=24 / scenecut=40 / intra_refresh=0 / rc_lookahead=50 / rc=2pass / mbtree=1 / bitrate=8645 / ratetol=1.0 / qcomp=0.60 / qpmin=0 / qpmax=69 / qpstep=4 / cplxblur=20.0 / qblur=0.5 / ip_ratio=1.40 / aq=1:1.00
Language : English
Default : Yes
Forced : No

Audio #1
ID : 2
Format : DTS
Format/Info : Digital Theater Systems
Mode : 16
Format settings, Endianness : Big
Codec ID : A_DTS
Duration : 1h 47mn
Bit rate mode : Constant
Bit rate : 1 509 Kbps
Channel(s) : 6 channels
Channel positions : Front: L C R, Side: L R, LFE
Sampling rate : 48.0 KHz
Bit depth : 24 bits
Compression mode : Lossy
Stream size : 1.13 GiB (13%)
Title : French DTS 1509kbps
Language : French
Default : Yes
Forced : No

Audio #2
ID : 3
Format : DTS
Format/Info : Digital Theater Systems
Mode : 16
Format settings, Endianness : Big
Codec ID : A_DTS
Duration : 1h 47mn
Bit rate mode : Constant
Bit rate : 1 509 Kbps
Channel(s) : 6 channels
Channel positions : Front: L C R, Side: L R, LFE
Sampling rate : 48.0 KHz
Bit depth : 24 bits
Compression mode : Lossy
Stream size : 1.13 GiB (13%)
Title : English DTS 1509kbps
Language : English
Default : Yes
Forced : No

Text #1
ID : 4
Format : UTF-8
Codec ID : S_TEXT/UTF8
Codec ID/Info : UTF-8 Plain Text
Title : Forced
Language : French
Default : Yes
Forced : Yes

Text #2
ID : 5
Format : UTF-8
Codec ID : S_TEXT/UTF8
Codec ID/Info : UTF-8 Plain Text
Title : French
Language : French
Default : No
Forced : No

Menu
00:00:00.000 : en:00:00:00.000
00:10:24.542 : en:00:10:24.542
00:17:31.042 : en:00:17:31.042
00:25:40.500 : en:00:25:40.500
00:38:30.750 : en:00:38:30.750
00:46:25.625 : en:00:46:25.625
00:54:20.875 : en:00:54:20.875
01:03:03.250 : en:01:03:03.250
01:12:49.333 : en:01:12:49.333
01:20:45.083 : en:01:20:45.083
01:30:12.792 : en:01:30:12.792
01:40:37.583 : en:01:40:37.583