Télécharger Super Storm : La tornade de l'apocalypse French

Qualité DVDRiP | FRENCH

Super Storm : La tornade de l'apocalypse

Super Storm : La tornade de l'apocalypse

Super Storm : La tornade de l'apocalypse

Origine du film : Canadien
Réalisateur : Sheldon Wilson
Acteurs : David Sutcliffe, Leah Cairns, Mitch Pileggi
Genre : Action, Science fiction
Durée : 1h 35min
Année de production : 2011
Titre Original : Mega Cyclone

Super Storm : La tornade de l'apocalypse

Des morceaux de la planète Jupiter se dirigent vers la Terre et provoquent des orages magnétiques dévastateurs. Alors que les scientifiques sont impuissants face au phénomène, le projet scolaire de Will, un ingénieux adolescent, pourrait sauver l’humanité…

Nom de la release : Space.Twister.2012.FRENCH.DVDRiP.XViD-PUTCH 21854″ style= »display:inline; »>

Qualité : DVDRiP
Format : XviD
Langue : Français
Taille totale : 700 Mo

Uptobox.com
Télécharger

Free
Télécharger

Uploaded.net
Télécharger

Rapidgator.net
Télécharger

TurboBit.net
Télécharger

Mega
Télécharger

NFO :

Afficher / Masquer le texte 2dea13785603e2eb2b04b46a67f75b4b » class= »text_spoiler » style= »display:none; »>General
Complete name : Space.Twister.2012.FRENCH.DVDRiP.XViD-PUTCH.avi
Format : AVI
Format/Info : Audio Video Interleave
File size : 699 MiB
Duration : 1h 22mn
Overall bit rate : 1 180 Kbps
Writing application : VirtualDubMod 1.5.1.1a (build 1155/release)
Writing library : VirtualDubMod build 1155/release

Video
ID : 0
Format : MPEG-4 Visual
Format profile : Advanced [email protected]
Format settings, BVOP : 2
Format settings, QPel : No
Format settings, GMC : No warppoints
Format settings, Matrix : Default (H.263)
Muxing mode : Packed bitstream
Codec ID : XVID
Codec ID/Hint : XviD
Duration : 1h 22mn
Bit rate : 1 050 Kbps
Width : 640 pixels
Height : 272 pixels
Display aspect ratio : 2.35:1
Frame rate : 25.000 fps
Color space : YUV
Chroma subsampling : 4:2:0
Bit depth : 8 bits
Scan type : Progressive
Compression mode : Lossy
Bits/(Pixel*Frame) : 0.241
Stream size : 622 MiB (89%)
Writing library : XviD 1.1.2 (UTC 2006-11-01)

Audio
ID : 1
Format : MPEG Audio
Format version : Version 1
Format profile : Layer 3
Codec ID : 55
Codec ID/Hint : MP3
Duration : 1h 22mn
Bit rate mode : Variable
Bit rate : 117 Kbps
Channel(s) : 2 channels
Sampling rate : 48.0 KHz
Compression mode : Lossy
Stream size : 69.3 MiB (10%)
Alignment : Aligned on interleaves
Interleave, duration : 24 ms (0.60 video frame)
Interleave, preload duration : 316 ms

Jeux Gratuit
15354131_1854970838071206_1069261547_o.png