Telecharger Superman contre l'élite [BLURAY 720p] French

BLURAY 720p | MULTiLANGUES

Superman contre l'élite

Superman contre l'élite

Superman contre l'élite

Origine du film : Américain
Réalisateur : Michael Chang (II)
Acteurs : Pauley Perrette, Robin Atkin Downes, George Newbern
Genre : Animation, Action
Durée : 1h 16min
Année de production : 2012
Titre Original : Superman vs. The Elite

Superman contre l'élite

Une nouvelle équipe de super-héros sans scrupules se met en place et éclipse Superman. Le héros va devoir réagir.

Nom de la release : Superman.vs.The.Elite.2012.720p.BluRay.DTS.x264-EbP 12959″ style= »display:inline; »>

Superman contre l'élite

Qualité : BLURAY 720p
Format : MKV
Langue : Multilangage
Sous-titre : Multi
Découpé avec : Winrar
Nombre de fichiers : 5 Fichiers
Taille des fichiers : 1000 Mo 88 Mo
Taille totale : 4088 Mo

Superman contre l'élite

[1 seul lien premium]


Uptobox.com
Télécharger

Uploaded
Télécharger

Rapidgator
Télécharger

TurboBit
Télécharger

[5 Liens Interchangeables]

1fichier
Télécharger

Uptobox
Télécharger

Uploaded
Télécharger

Rapidgator
Télécharger

TurboBit
Télécharger

NFO :

Afficher / Masquer le texte 35624e8743c6c6e1809ddab5bfa1f279″ class= »text_spoiler » style= »display:none; »>Format : Matroska
Format version : Version 2
File size : 3.99 GiB
Duration : 1h 14mn
Overall bit rate mode : Variable
Overall bit rate : 7 700 Kbps
Encoded date : UTC 2012-06-18 20:53:20
Writing application : mkvmerge v2.7.0 ('Do It Again') built on Jul 2 2010 15:54:17
Writing library : libebml v0.7.7 libmatroska v0.8.1

Video
ID : 1
Format : AVC
Format/Info : Advanced Video Codec
Format profile : [email protected]
Format settings, CABAC : Yes
Format settings, ReFrames : 9 frames
Codec ID : V_MPEG4/ISO/AVC
Duration : 1h 14mn
Bit rate : 5 346 Kbps
Width : 1 280 pixels
Height : 720 pixels
Display aspect ratio : 16:9
Frame rate : 23.976 fps
Color space : YUV
Chroma subsampling : 4:2:0
Bit depth : 8 bits
Scan type : Progressive
Bits/(Pixel*Frame) : 0.242
Stream size : 2.77 GiB (69%)
Title : Superman vs. The Elite 2012
Writing library : x264 core 125 r2200 999b753
Encoding settings : cabac=1 / ref=9 / deblock=1:-3:-3 / analyse=0x3:0x113 / me=tesa / subme=11 / psy=1 / psy_rd=0.60:0.00 / mixed_ref=1 / me_range=16 / chroma_me=1 / trellis=2 / 8x8dct=1 / cqm=0 / deadzone=21,11 / fast_pskip=0 / chroma_qp_offset=-2 / threads=12 / lookahead_threads=2 / sliced_threads=0 / nr=0 / decimate=0 / interlaced=0 / bluray_compat=0 / constrained_intra=0 / bframes=9 / b_pyramid=2 / b_adapt=2 / b_bias=0 / direct=3 / weightb=1 / open_gop=0 / weightp=2 / keyint=250 / keyint_min=23 / scenecut=40 / intra_refresh=0 / rc=crf / mbtree=0 / crf=16.3 / qcomp=0.60 / qpmin=0 / qpmax=69 / qpstep=4 / ip_ratio=1.40 / pb_ratio=1.30 / aq=1:0.85
Language : English
Default : Yes
Forced : No
Matrix coefficients : BT.709-5, BT.1361, IEC 61966-2-4 709, SMPTE RP177

Audio #1
ID : 2
Format : AC-3
Format/Info : Audio Coding 3
Mode extension : CM (complete main)
Codec ID : A_AC3
Duration : 1h 14mn
Bit rate mode : Constant
Bit rate : 640 Kbps
Channel(s) : 6 channels
Channel positions : Front: L C R, Side: L R, LFE
Sampling rate : 48.0 KHz
Bit depth : 16 bits
Compression mode : Lossy
Stream size : 340 MiB (8%)
Default : Yes
Forced : No

Audio #2
ID : 3
Format : DTS
Format/Info : Digital Theater Systems
Format profile : MA / Core
Codec ID : A_DTS
Duration : 1h 14mn
Bit rate mode : Variable
Bit rate : 1 561 Kbps / 1 510 Kbps
Channel(s) : 6 channels
Channel positions : Front: L C R, Side: L R, LFE
Sampling rate : 48.0 KHz
Bit depth : 24 bits
Compression mode : Lossless / Lossy
Default : No
Forced : No

Text #1
ID : 4
Format : UTF-8
Codec ID : S_TEXT/UTF8
Codec ID/Info : UTF-8 Plain Text
Default : No
Forced : No

Text #2
ID : 5
Format : UTF-8
Codec ID : S_TEXT/UTF8
Codec ID/Info : UTF-8 Plain Text
Language : English
Default : Yes
Forced : No

Menu #1
00:00:00.000 : en:00:00:00.000
00:09:44.292 : en:00:09:44.292
00:20:06.205 : en:00:20:06.205
00:30:44.342 : en:00:30:44.342
00:40:29.260 : en:00:40:29.260
00:51:57.614 : en:00:51:57.614
01:03:06.533 : en:01:03:06.533
01:12:11.160 : en:01:12:11.160

Jeux Gratuit
15354131_1854970838071206_1069261547_o.png