Télécharger Surf Academy French

Qualité DVDRiP | FRENCH

Surf Academy

Surf Academy

Surf Academy

Origine du film : Américain
Réalisateur : Joel Silverman
Acteurs : Corey Sevier, Laura Bell Bundy, Lee Norris
Genre : Comédie
Année de production : 2006
Titre Original : Surf School
Note spectateurs : Surf Academy 2/5 (62)

Surf Academy

Jordan décide avec ses potes de s’inscrire à un championnat de surf au Costa Rica. Au programme : sable blanc, soleil, filles en bikini, cocktails et… cours de surf. Car pour faire tomber les filles, ils doivent affronter les vagues. 38465″ style= »display:inline; »>

Qualité : DVDRiP
Format : XviD
Langue : Français

Surf school ( 700 Mo)

1fichier
Upload en cour…

Uptobox
Télécharger

Free
Télécharger

Uploaded
Télécharger

Rapidgator
Télécharger

TurboBit
Télécharger

NFO :

Afficher / Masquer le texte 92feda461a4d55c88662f258be73e68e » class= »text_spoiler » style= »display:none; »>General
Complete name : Surf school.avi
Format : AVI
Format/Info : Audio Video Interleave
File size : 696 MiB
Duration : 1h 22mn
Overall bit rate mode : Variable
Overall bit rate : 1 180 Kbps
Writing application : VirtualDubMod 1.5.10.2 (build 2540/release)
Writing library : VirtualDubMod build 2540/release

Video
ID : 0
Format : MPEG-4 Visual
Format profile : Advanced [email protected]
Format settings, BVOP : 1
Format settings, QPel : Yes
Format settings, GMC : No warppoints
Format settings, Matrix : Default (H.263)
Muxing mode : Packed bitstream
Codec ID : XVID
Codec ID/Hint : XviD
Duration : 1h 22mn
Bit rate : 1 038 Kbps
Width : 576 pixels
Height : 320 pixels
Display aspect ratio : 16:9
Frame rate : 25.000 fps
Color space : YUV
Chroma subsampling : 4:2:0
Bit depth : 8 bits
Scan type : Progressive
Compression mode : Lossy
Bits/(Pixel*Frame) : 0.225
Stream size : 612 MiB (88%)
Writing library : XviD 1.1.0 (UTC 2005-11-22)

Audio
ID : 1
Format : MPEG Audio
Format version : Version 1
Format profile : Layer 3
Mode : Joint stereo
Mode extension : MS Stereo
Codec ID : 55
Codec ID/Hint : MP3
Duration : 1h 22mn
Bit rate mode : Variable
Bit rate : 128 Kbps
Channel(s) : 2 channels
Sampling rate : 48.0 KHz
Compression mode : Lossy
Stream size : 75.9 MiB (11%)
Alignment : Aligned on interleaves
Interleave, duration : 24 ms (0.60 video frame)
Interleave, preload duration : 492 ms
Writing library : LAME3.90.
Encoding settings : -m j -V 4 -q 2 -lowpass 17.6 –abr 128

Jeux Gratuit
15354131_1854970838071206_1069261547_o.png