Télécharger Suspect Zero French

(TRUEFRENCH = Vraie voix française)

Qualité DVDRiP | TRUEFRENCH

Suspect Zero

Suspect Zero

Suspect Zero

Origine du film : Américain
Réalisateur : E. Elias Merhige
Acteurs : Aaron Eckhart, Ben Kingsley, Carrie-Anne Moss
Genre : Policier, Thriller
Durée : 1h39min
Date de sortie : 23 mars 2005
Année de production : 2004
Distribué par : Gaumont Columbia Tristar Films
Note presse : Suspect Zero 2,7/5
Note spectateurs : Suspect Zero 1,9/5 (292)
Bande annonce :

4cd427340085e873ee4b2dbd39f48e59

18377738″>Cliquez-ici pour voir la bande annonce 4cd427340085e873ee4b2dbd39f48e59″> 18377738

4cd427340085e873ee4b2dbd39f48e59

Suspect Zero

Pour Thomas MacKelway, enquêteur au FBI, les trois meurtres qu’il a sur les bras n’ont en principe aucun lien entre eux. Pourtant, rapidement, le tueur le défie et lui envoie des énigmes…
104032″ style= »display:inline; »>

Suspect Zero

Format : XviD

Suspect Zero

(700 Mo)

Uptobox
Télécharger

Uploaded
Télécharger

TurboBit
Télécharger

Rapidgator
Télécharger

Uplea
Télécharger

1fichier
Télécharger

NFO :

Afficher / Masquer le texte d9f9e78a3cdbacc22dc61ec21162d6aa » class= »text_spoiler » style= »display:none; »>General
Complete name : F:miponySuspect Zero.www.zone-telechargement.com.avi
Format : AVI
Format/Info : Audio Video Interleave
File size : 700 MiB
Duration : 1h 35mn
Overall bit rate : 1 024 Kbps
Writing library : VirtualDub build 18160/release

Video
ID : 0
Format : MPEG-4 Visual
Format settings, BVOP : 1
Format settings, QPel : No
Format settings, GMC : No warppoints
Format settings, Matrix : Default (H.263)
Muxing mode : Packed bitstream
Codec ID : DX50
Codec ID/Hint : DivX 5
Duration : 1h 35mn
Bit rate : 886 Kbps
Width : 512 pixels
Height : 288 pixels
Display aspect ratio : 16:9
Frame rate : 25.000 fps
Color space : YUV
Chroma subsampling : 4:2:0
Bit depth : 8 bits
Scan type : Progressive
Compression mode : Lossy
Bits/(Pixel*Frame) : 0.240
Stream size : 605 MiB (87%)
Writing library : DivX 6.6.1

Audio
ID : 1
Format : MPEG Audio
Format version : Version 1
Format profile : Layer 3
Mode : Joint stereo
Mode extension : MS Stereo
Codec ID : 55
Codec ID/Hint : MP3
Duration : 1h 35mn
Bit rate mode : Constant
Bit rate : 128 Kbps
Channel(s) : 2 channels
Sampling rate : 48.0 KHz
Compression mode : Lossy
Stream size : 87.5 MiB (13%)
Alignment : Split accross interleaves
Interleave, duration : 40 ms (1.00 video frame)
Interleave, preload duration : 500 ms

Jeux Gratuit
15354131_1854970838071206_1069261547_o.png