Telecharger Tad l'explorateur : A la recherche de la Cité perdue [BLURAY 720p] French

(TRUEFRENCH = Vraie voix française)

BLURAY 720p | TRUEFRENCH

Tad l'explorateur : A la recherche de la Cité perdue

Tad l'explorateur : A la recherche de la Cité perdue

Tad l'explorateur : A la recherche de la Cité perdue

Origine du film : Espagnol
Réalisateur : Enrique Gato
Acteurs : Oscar Barberán, Belinda, Jose Mota
Genre : Animation, Aventure, Comédie
Durée : 1h 31min
Date de sortie : 17 avril 2013
Année de production : 2012
Titre Original : Las Aventuras de Tadeo Jones
Distribué par : StudioCanal
Note presse : Tad l'explorateur : A la recherche de la Cité perdue 3,0/5
Note spectateurs : Tad l'explorateur : A la recherche de la Cité perdue

; »>3,3/5 (197)
Bande annonce :

86f1511d2eaaffdc235df9832d7dd5ba

19459091″>Cliquez-ici pour voir la bande annonce 86f1511d2eaaffdc235df9832d7dd5ba »> 19459091

86f1511d2eaaffdc235df9832d7dd5ba

Tad l'explorateur : A la recherche de la Cité perdue

Suite à un quiproquo, Tad, ouvrier distrait, est pris par erreur pour un célèbre archéologue et envoyé en mission au Pérou. Avec l’aide de Jeff, son chien fidèle, d’un professeur intrépide, d’un perroquet muet et d’une charmante jeune femme, il tentera de défendre la Cité Perdue des Incas contre l’assaut d’une redoutable bande de chasseurs de trésors…

Nom de la release : Tad.The.Lost.Explorer.2012.FRENCH.720p.BluRay.x264-HDFUZION 32627″ style= »display:inline; »>

Qualité : BLURAY 720p
Format : MKV
Langue : Français
Nombre de fichiers : 3 Fichiers
Taille des fichiers : 1000 Mo 640 Mo
Taille totale : 2640 Mo

Ps: Les liens sont interchangeables, prenez une partie de chaque hébergeur pour télécharger plusieurs fichiers en même temps. smile


[2 Liens de 1000 Mo 1 Lien de 640 Mo]

1fichier
Télécharger

Uptobox
Télécharger

Free
Télécharger

Uploaded
Télécharger

Rapidgator
Télécharger

TurboBit
Télécharger

[Un Lien Premium de 2.57 Go]

1fichier Premium
Télécharger

Uptobox Premium
Télécharger

BayFiles Premium
Télécharger

Uploaded Premium
Télécharger

Rapidgator Premium
Télécharger

TurboBit Premium
Télécharger

NFO :

Afficher / Masquer le texte c8146c35ff0b03454a41ffcf9b8d393c » class= »text_spoiler » style= »display:none; »>Format : Matroska
Format version : Version 2
File size : 2.58 GiB
Duration : 1h 28mn
Overall bit rate : 4 180 Kbps
Encoded date : UTC 2013-08-15 22:54:17
Writing application : mkvmerge v4.4.0
Writing library : libebml v1.0.0 libmatroska v1.0.0

Video
ID : 1
Format : AVC
Format/Info : Advanced Video Codec
Format profile : [email protected]
Format settings, CABAC : Yes
Format settings, ReFrames : 5 frames
Muxing mode : Header stripping
Codec ID : V_MPEG4/ISO/AVC
Duration : 1h 28mn
Bit rate : 3 579 Kbps
Width : 1 280 pixels
Height : 688 pixels
Display aspect ratio : 1.85:1
Frame rate mode : Constant
Frame rate : 25.000 fps
Original frame rate : 23.976 fps
Color space : YUV
Chroma subsampling : 4:2:0
Bit depth : 8 bits
Scan type : Progressive
Bits/(Pixel*Frame) : 0.163
Stream size : 2.25 GiB (87%)
Writing library : x264 core 120
Encoding settings : cabac=1 / ref=5 / deblock=1:0:0 / analyse=0x3:0x113 / me=umh / subme=7 / psy=1 / psy_rd=1.00:0.00 / mixed_ref=1 / me_range=16 / chroma_me=1 / trellis=1 / 8x8dct=1 / cqm=0 / deadzone=21,11 / fast_pskip=1 / chroma_qp_offset=-2 / threads=3 / sliced_threads=0 / nr=0 / decimate=1 / interlaced=0 / bluray_compat=0 / constrained_intra=0 / bframes=3 / b_pyramid=2 / b_adapt=2 / b_bias=0 / direct=1 / weightb=1 / open_gop=0 / weightp=2 / keyint=240 / keyint_min=24 / scenecut=40 / intra_refresh=0 / rc_lookahead=50 / rc=2pass / mbtree=1 / bitrate=3579 / ratetol=1.0 / qcomp=0.60 / qpmin=3 / qpmax=69 / qpstep=4 / cplxblur=20.0 / qblur=0.5 / ip_ratio=1.40 / aq=1:1.00
Language : English
Default : Yes
Forced : No
Color primaries : BT.709
Transfer characteristics : BT.709
Matrix coefficients : BT.709

Audio
ID : 2
Format : AC-3
Format/Info : Audio Coding 3
Mode extension : CM (complete main)
Format settings, Endianness : Big
Muxing mode : Header stripping
Codec ID : A_AC3
Duration : 1h 28mn
Bit rate mode : Constant
Bit rate : 448 Kbps
Channel(s) : 6 channels
Channel positions : Front: L C R, Side: L R, LFE
Sampling rate : 48.0 KHz
Bit depth : 16 bits
Compression mode : Lossy
Delay relative to video : 5s 500ms
Stream size : 283 MiB (11%)
Default : Yes
Forced : No