Télécharger Tale of Tales Blu-Ray 1080p/720p FRENCH

(TRUEFRENCH = Vraie voix française)

Qualité BLURAY 720p | TRUEFRENCH

Tale of Tales

Tale of Tales

Origine du film : Italien, Français, Britannique
Réalisateur : Matteo Garrone
Acteurs : Salma Hayek-Pinault, Vincent Cassel, Toby Jones
Genre : Fantastique
Durée : 2h14min
Date de sortie : 1 juillet 2015
Année de production : 2014
Titre Original : Il Racconto dei Racconti
Distribué par : Le Pacte
Note presse : Tale of Tales 3,0/5
Note spectateurs : Tale of Tales 2,7/5 (689)
Bande annonce :

6521a6149526e4b13f7b91cb1607960f

19554031″>Cliquez-ici pour voir la bande annonce 6521a6149526e4b13f7b91cb1607960f »> 19554031

6521a6149526e4b13f7b91cb1607960f

Tale of Tales

Il était une fois trois royaumes voisins où dans de merveilleux châteaux régnaient rois et reines, princes et princesses : un roi fornicateur et libertin, un autre captivé par un étrange animal, une reine obsédée par son désir d’enfant… Sorciers et fées, monstres redoutables, ogre et vieilles lavandières, saltimbanques et courtisans sont les héros de cette libre interprétation des célèbres contes de Giambattista Basile.
103628″ style= »display:inline; »>

Tale of Tales

Format : MKV

Tale of Tales

Tale.of.Tales.2015.TRUEEFRENCH.720p.BluRay.x264.AC3-ShowFr

(5741 Mo)

[Liens Interchangeables entre hébergeurs: 5x 1000 Mo + 1x 741 Mo]

Uptobox
Télécharger

Uplea
Télécharger

1fichier
Télécharger

Uploaded
Télécharger

Rapidgator
Télécharger

TurboBit
Télécharger

1 Lien Premium – 5.6 Go

Uptobox Premium
Télécharger

Uplea Premium
Télécharger

1fichier Premium
Télécharger

Uploaded Premium
Télécharger

TurboBit Premium
Télécharger

NFO :

Afficher / Masquer le texte 87a9a3ba9135000fe9b9f009619a1a6b » class= »text_spoiler » style= »display:none; »>General
Unique ID : 68460233040373425755473962304062038291 (0x3380F61686A31D5178F72BB5AB172113)
Complete name : Tale.of.Tales.2015.TRUEEFRENCH.720p.BluRay.x264.AC3-ShowFr.mkv
Format : Matroska
Format version : Version 4 / Version 2
File size : 5.61 GiB
Duration : 2h 13mn
Overall bit rate : 6 001 Kbps
Encoded date : UTC 2015-11-04 18:16:51
Writing application : mkvmerge v8.3.0 (‘Over the Horizon’) 64bit
Writing library : libebml v1.3.1 + libmatroska v1.4.2
DURATION : 02:13:45.959000000
NUMBER_OF_FRAMES : 192623
NUMBER_OF_BYTES : 5569459473
_STATISTICS_WRITING_APP : mkvmerge v8.3.0 (‘Over the Horizon’) 64bit
_STATISTICS_WRITING_DATE_UT : 2015-11-04 18:16:51
_STATISTICS_TAGS : BPS DURATION NUMBER_OF_FRAMES NUMBER_OF_BYTES

Video
ID : 2
Format : AVC
Format/Info : Advanced Video Codec
Format profile : [email protected]
Format settings, CABAC : Yes
Format settings, ReFrames : 4 frames
Codec ID : V_MPEG4/ISO/AVC
Duration : 2h 13mn
Bit rate : 5 500 Kbps
Width : 1 280 pixels
Height : 544 pixels
Display aspect ratio : 2.35:1
Frame rate mode : Constant
Frame rate : 24.000 fps
Color space : YUV
Chroma subsampling : 4:2:0
Bit depth : 8 bits
Scan type : Progressive
Bits/(Pixel*Frame) : 0.329
Stream size : 5.08 GiB (91%)
Title : Tale.of.Tales.2015.720p.BluRay.x264.DTS-RARBG
Writing library : x264 core 142 r2495 6a301b6
Encoding settings : cabac=1 / ref=4 / deblock=1:-2:-2 / analyse=0x3:0x113 / me=umh / subme=7 / psy=1 / psy_rd=1.00:0.15 / mixed_ref=1 / me_range=16 / chroma_me=1 / trellis=1 / 8x8dct=1 / cqm=0 / deadzone=21,11 / fast_pskip=1 / chroma_qp_offset=-3 / threads=12 / lookahead_threads=3 / sliced_threads=0 / nr=0 / decimate=1 / interlaced=0 / bluray_compat=0 / constrained_intra=0 / bframes=3 / b_pyramid=2 / b_adapt=2 / b_bias=0 / direct=3 / weightb=1 / open_gop=0 / weightp=2 / keyint=250 / keyint_min=25 / scenecut=40 / intra_refresh=0 / rc_lookahead=50 / rc=abr / mbtree=1 / bitrate=5500 / ratetol=1.0 / qcomp=0.60 / qpmin=0 / qpmax=69 / qpstep=4 / vbv_maxrate=31250 / vbv_bufsize=31250 / nal_hrd=none / filler=0 / ip_ratio=1.40 / aq=1:1.00
Language : English
Default : Yes
Forced : No

Audio
ID : 1
Format : AC-3
Format/Info : Audio Coding 3
Mode extension : CM (complete main)
Format settings, Endianness : Big
Codec ID : A_AC3
Duration : 2h 13mn
Bit rate mode : Constant
Bit rate : 448 Kbps
Channel(s) : 6 channels
Channel positions : Front: L C R, Side: L R, LFE
Sampling rate : 48.0 KHz
Compression mode : Lossy
Delay relative to video : 10s 700ms
Stream size : 429 MiB (7%)
Language : French
Default : Yes
Forced : Yes

Menu
00:00:00.000 : en:Chapter 01
00:08:36.416 : en:Chapter 02
00:19:37.750 : en:Chapter 03
00:26:20.250 : en:Chapter 04
00:36:04.916 : en:Chapter 05
00:44:24.083 : en:Chapter 06
00:56:14.333 : en:Chapter 07
01:09:24.583 : en:Chapter 08
01:24:24.625 : en:Chapter 09
01:33:59.208 : en:Chapter 10
01:47:49.166 : en:Chapter 11
02:01:58.916 : en:Chapter 12

Jeux Gratuit
15354131_1854970838071206_1069261547_o.png