Télécharger Terminator Genisys Blu-Ray 3D

(TRUEFRENCH = Vraie voix française)

Qualité BLURAY 3D TB | TRUEFRENCH

Terminator Genisys

Terminator Genisys

Origine du film : Américain
Réalisateur : Alan Taylor
Acteurs : Arnold Schwarzenegger, Jason Clarke, Emilia Clarke
Genre : Action, Science fiction
Durée : 2h6min
Date de sortie : 1 juillet 2015
Année de production : 2015
Distribué par : Paramount Pictures France
Note presse : Terminator Genisys 2,5/5
Note spectateurs : Terminator Genisys 3,5/5 (5 161)
Bande annonce :

66f8cbd539c0cdbd927228e3a62af5ad

19552727″>Cliquez-ici pour voir la bande annonce 66f8cbd539c0cdbd927228e3a62af5ad »> 19552727

66f8cbd539c0cdbd927228e3a62af5ad

Terminator Genisys

Le leader de la résistance John Connor envoie le sergent Kyle Reese dans le passé pour protéger sa mère, Sarah Connor et préserver l’avenir de l’humanité. Des événements inattendus provoquent une fracture temporelle et Sarah et Kyle se retrouvent dans une nouvelle version du passé. Ils y découvrent un allié inattendu : le Guardian. Ensemble, ils doivent faire face à un nouvel ennemi. La menace a changé de visage.
102051″ style= »display:inline; »>

Terminator Genisys

Format : MKV

Terminator Genisys

Terminator.Genisys.2015.3D.TB.1080P.AC3.5.1.TrueFrOnly

(14580 Mo)

[Liens Interchangeables entre hébergeurs: 14x 1000 Mo + 1x 580 Mo]

Uptobox
Télécharger

Uplea
Télécharger

1fichier
Télécharger

Uploaded
Télécharger

Rapidgator
Télécharger

TurboBit
Télécharger

1 Lien Premium – 14.2 Go

Uptobox Premium
Télécharger

Uplea Premium
Télécharger

1fichier Premium
Télécharger

Uploaded Premium
Télécharger

TurboBit Premium
Télécharger

NFO:

Afficher / Masquer le texte 588a041db1eef3ca44c457e978d690e2″ class= »text_spoiler » style= »display:none; »>
General
Unique ID : 269087730421684688709664940872991144377 (0xCA706969AB491EEABEA04CCC8D3A79B9)
Complete name : Terminator.Genisys.2015.3D.TB.1080P.AC3.5.1.TrueFrOnly.mkv
Format : Matroska
Format version : Version 4 / Version 2
File size : 14.2 GiB
Duration : 2h 5mn
Overall bit rate : 16.2 Mbps
Encoded date : UTC 2015-10-23 11:01:46
Writing application : mkvmerge v7.6.0 (‘Garden of Dreams’) 64bit built on Feb 8 2015 15:43:43
Writing library : libebml v1.3.1 + libmatroska v1.4.2
_STATISTICS_WRITING_APP : mkvmerge v7.6.0 (‘Garden of Dreams’) 64bit built on Feb 8 2015 15:43:43
_STATISTICS_WRITING_DATE_UTC : 2015-10-23 11:01:46
_STATISTICS_TAGS : BPS DURATION NUMBER_OF_FRAMES NUMBER_OF_BYTES
DURATION : 02:05:43.008000000
NUMBER_OF_FRAMES : 235719
NUMBER_OF_BYTES : 603440640

Video
ID : 1
Format : AVC
Format/Info : Advanced Video Codec
Format profile : [email protected]
Format settings, CABAC : Yes
Format settings, ReFrames : 2 frames
Codec ID : V_MPEG4/ISO/AVC
Duration : 2h 5mn
Bit rate : 16.0 Mbps
Width : 1 920 pixels
Height : 1 080 pixels
Display aspect ratio : 16:9
Frame rate mode : Constant
Frame rate : 23.976 fps
Color space : YUV
Chroma subsampling : 4:2:0
Bit depth : 8 bits
Scan type : Progressive
Bits/(Pixel*Frame) : 0.322
Stream size : 13.4 GiB (94%)
Writing library : x264 core 142
Encoding settings : cabac=1 / ref=1 / deblock=1:-1:-1 / analyse=0x3:0 / me=hex / subme=5 / psy=0 / mixed_ref=0 / me_range=16 / chroma_me=1 / trellis=0 / 8x8dct=1 / cqm=0 / deadzone=21,11 / fast_pskip=1 / chroma_qp_offset=0 / threads=8 / lookahead_threads=2 / sliced_threads=0 / nr=0 / decimate=1 / interlaced=0 / bluray_compat=0 / constrained_intra=0 / bframes=2 / b_pyramid=0 / b_adapt=1 / b_bias=0 / direct=1 / weightb=1 / open_gop=0 / weightp=0 / keyint=24 / keyint_min=13 / scenecut=40 / intra_refresh=0 / rc=abr / mbtree=0 / bitrate=16000 / ratetol=1.0 / qcomp=0.60 / qpmin=0 / qpmax=69 / qpstep=4 / ip_ratio=1.40 / pb_ratio=1.30 / aq=1:1.00
Default : Yes
Forced : No
Color primaries : BT.709
Transfer characteristics : BT.709
Matrix coefficients : BT.709

Audio
ID : 2
Format : AC-3
Format/Info : Audio Coding 3
Mode extension : CM (complete main)
Format settings, Endianness : Big
Codec ID : A_AC3
Duration : 2h 5mn
Bit rate mode : Constant
Bit rate : 640 Kbps
Channel(s) : 6 channels
Channel positions : Front: L C R, Side: L R, LFE
Sampling rate : 48.0 KHz
Bit depth : 16 bits
Compression mode : Lossy
Stream size : 575 MiB (4%)
Title : Bande True Frech AC3 5.1
Language : French
Default : Yes
Forced : Yes

Text
ID : 3
Format : PGS
Muxing mode : zlib
Codec ID : S_HDMV/PGS
Codec ID/Info : The same subtitle format used on BDs/HD-DVDs
Language : French
Default : No
Forced : No

Menu
00:00:00.000 : en01)00:00:00:000
00:07:40.334 : en02)00:07:40:334
00:14:20.734 : en03)00:14:20:734
00:20:31.563 : en04)00:20:31:563
00:27:48.416 : en05)00:27:48:416
00:34:54.801 : en06)00:34:54:801
00:41:02.626 : en07)00:41:02:626
00:46:28.786 : en08)00:46:28:786
00:53:05.515 : en09)00:53:05:515
01:01:00.239 : en10)01:01:00:239
01:08:22.556 : en11)01:08:22:556
01:14:43.812 : en12)01:14:43:812
01:21:31.261 : en13)01:21:31:261
01:31:01.706 : en14)01:31:01:706
01:38:42.750 : en15)01:38:42:750
01:45:41.084 : en16)01:45:41:084
01:52:48.970 : en17)01:52:48:970
01:58:00.114 : en18)01:58:00:114
02:05:42.743 : en19)02:05:42:743

Jeux Gratuit
15354131_1854970838071206_1069261547_o.png