Telecharger Terminator Genisys [BLURAY 720p] French

Qualité BLURAY 720p | MULTiLANGUES (VFQ)

Terminator Genisys

Terminator Genisys

Terminator Genisys

Origine du film : Américain
Réalisateur : Alan Taylor
Acteurs : Arnold Schwarzenegger, Jason Clarke, Emilia Clarke
Genre : Action, Science fiction
Durée : 2h6min
Date de sortie : 1 juillet 2015
Année de production : 2015
Distribué par : Paramount Pictures France
Note presse : Terminator Genisys 2,5/5
Note spectateurs : Terminator Genisys

; »>3,6/5 (4 763)
Bande annonce :

c0cc1c1c2aa2be653b9e41d6383a1065

19552727″>Cliquez-ici pour voir la bande annonce c0cc1c1c2aa2be653b9e41d6383a1065″> 19552727

c0cc1c1c2aa2be653b9e41d6383a1065

Terminator Genisys

Le leader de la résistance John Connor envoie le sergent Kyle Reese dans le passé pour protéger sa mère, Sarah Connor et préserver l’avenir de l’humanité. Des événements inattendus provoquent une fracture temporelle et Sarah et Kyle se retrouvent dans une nouvelle version du passé. Ils y découvrent un allié inattendu : le Guardian. Ensemble, ils doivent faire face à un nouvel ennemi. La menace a changé de visage.
98715″ style= »display:inline; »>

Terminator Genisys

Format : MKV

Terminator Genisys

Terminator.Genisys.2015.MULTi.720p.BluRay.x264-KiKi

(6181 Mo)

[Liens Interchangeables entre hébergeurs: 6x 1000 Mo + 1x 181 Mo]

Uptobox
Télécharger

Uplea
Télécharger

1fichier
Télécharger

Uploaded
Télécharger

Rapidgator
Télécharger

TurboBit
Télécharger

1 Lien Premium – 6 Go

Uptobox Premium
Télécharger

Uplea Premium
Télécharger

1fichier Premium
Télécharger

Uploaded Premium
Télécharger

TurboBit Premium
Télécharger

NFO :

Afficher / Masquer le texte 656ea4fd776ed1afafdd9e760d8efbb1″ class= »text_spoiler » style= »display:none; »>General
Unique ID : 175824756533829144390596344710008413225 (0x84469DC997B7BF248834B18F4D141C29)
Complete name : Terminator.Genisys.2015.MULTi.720p.BluRay.x264-KiKi.mkv
Format : Matroska
Format version : Version 4 / Version 2
File size : 6.04 GiB
Duration : 2h 5mn
Overall bit rate : 6 874 Kbps
Encoded date : UTC 2015-09-27 07:50:21
Writing application : mkvmerge v8.3.0 (‘Over the Horizon’) 64bit
Writing library : libebml v1.3.1 + libmatroska v1.4.2
DURATION : 01:56:58.428000000
NUMBER_OF_FRAMES : 2966
NUMBER_OF_BYTES : 8398666
_STATISTICS_WRITING_APP : mkvmerge v8.3.0 (‘Over the Horizon’) 64bit
_STATISTICS_WRITING_DATE_UTC : 2015-09-27 07:50:21
_STATISTICS_TAGS : BPS DURATION NUMBER_OF_FRAMES NUMBER_OF_BYTES
Attachment : Yes

Video
ID : 1
Format : AVC
Format/Info : Advanced Video Codec
Format profile : [email protected]
Format settings, CABAC : Yes
Format settings, ReFrames : 5 frames
Codec ID : V_MPEG4/ISO/AVC
Duration : 2h 5mn
Bit rate : 5 582 Kbps
Width : 1 280 pixels
Height : 536 pixels
Display aspect ratio : 2.40:1
Frame rate mode : Constant
Frame rate : 23.976 fps
Color space : YUV
Chroma subsampling : 4:2:0
Bit depth : 8 bits
Scan type : Progressive
Bits/(Pixel*Frame) : 0.339
Stream size : 4.79 GiB (79%)
Writing library : x264 core 148 r2597 e86f3a1
Encoding settings : cabac=1 / ref=5 / deblock=1:0:0 / analyse=0x3:0x133 / me=umh / subme=7 / psy=1 / psy_rd=1.00:0.00 / mixed_ref=1 / me_range=16 / chroma_me=1 / trellis=1 / 8x8dct=1 / cqm=0 / deadzone=21,11 / fast_pskip=0 / chroma_qp_offset=-2 / threads=17 / lookahead_threads=2 / sliced_threads=0 / nr=0 / decimate=1 / interlaced=0 / bluray_compat=0 / constrained_intra=0 / bframes=3 / b_pyramid=2 / b_adapt=1 / b_bias=0 / direct=1 / weightb=1 / open_gop=0 / weightp=2 / keyint=250 / keyint_min=23 / scenecut=40 / intra_refresh=0 / rc_lookahead=40 / rc=2pass / mbtree=1 / bitrate=5582 / ratetol=1.0 / qcomp=0.60 / qpmin=0 / qpmax=69 / qpstep=4 / cplxblur=20.0 / qblur=0.5 / ip_ratio=1.40 / aq=1:1.00
Language : English
Default : Yes
Forced : No
DURATION : 02:05:42.994000000
NUMBER_OF_FRAMES : 180851
NUMBER_OF_BYTES : 5262304859
_STATISTICS_WRITING_APP : mkvmerge v8.3.0 (‘Over the Horizon’) 64bit
_STATISTICS_WRITING_DATE_UTC : 2015-09-27 07:50:21
_STATISTICS_TAGS : BPS DURATION NUMBER_OF_FRAMES NUMBER_OF_BYTES

Audio #1
ID : 2
Format : AC-3
Format/Info : Audio Coding 3
Mode extension : CM (complete main)
Format settings, Endianness : Big
Codec ID : A_AC3
Duration : 2h 5mn
Bit rate mode : Constant
Bit rate : 640 Kbps
Channel(s) : 6 channels
Channel positions : Front: L C R, Side: L R, LFE
Sampling rate : 48.0 KHz
Bit depth : 16 bits
Compression mode : Lossy
Stream size : 575 MiB (9%)
Language : English
Default : No
Forced : No

Audio #2
ID : 3
Format : AC-3
Format/Info : Audio Coding 3
Mode extension : CM (complete main)
Format settings, Endianness : Big
Codec ID : A_AC3
Duration : 2h 5mn
Bit rate mode : Constant
Bit rate : 640 Kbps
Channel(s) : 6 channels
Channel positions : Front: L C R, Side: L R, LFE
Sampling rate : 48.0 KHz
Bit depth : 16 bits
Compression mode : Lossy
Stream size : 575 MiB (9%)
Title : VFQ EAC3 5.1
Language : French
Default : Yes
Forced : No

Text #1
ID : 4
Format : UTF-8
Codec ID : S_TEXT/UTF8
Codec ID/Info : UTF-8 Plain Text
Title : FR Forced
Language : French
Default : Yes
Forced : Yes

Text #2
ID : 5
Format : UTF-8
Codec ID : S_TEXT/UTF8
Codec ID/Info : UTF-8 Plain Text
Title : FR Complet
Language : French
Default : No
Forced : No

Text #3
ID : 6
Format : PGS
Muxing mode : zlib
Codec ID : S_HDMV/PGS
Codec ID/Info : The same subtitle format used on BDs/HD-DVDs
Title : FR Complet PGS
Language : French
Default : No
Forced : No

Menu
00:00:00.000 : en:00:00:00.000
00:07:40.335 : en:00:07:40.335
00:14:20.735 : en:00:14:20.735
00:20:31.564 : en:00:20:31.564
00:27:48.417 : en:00:27:48.417
00:34:54.801 : en:00:34:54.801
00:41:02.627 : en:00:41:02.627
00:46:28.786 : en:00:46:28.786
00:53:05.516 : en:00:53:05.516
01:01:00.240 : en:01:01:00.240
01:08:22.557 : en:01:08:22.557
01:14:43.813 : en:01:14:43.813
01:21:31.261 : en:01:21:31.261
01:31:01.706 : en:01:31:01.706
01:38:42.750 : en:01:38:42.750
01:45:41.085 : en:01:45:41.085
01:52:48.971 : en:01:52:48.971
01:58:00.115 : en:01:58:00.115

Source 720p SPARKS + Audio et Subs 1080p TRUEHD Poney

Jeux Gratuit
15354131_1854970838071206_1069261547_o.png