Télécharger That Awkward Moment Blu-Ray 1080p/720p FRENCH

(TRUEFRENCH = Vraie voix française)

Qualité BLURAY 720p | TRUEFRENCH

That Awkward Moment

That Awkward Moment

Origine du film : Américain
Réalisateur : Tom Gormican
Acteurs : Zac Efron, Miles Teller, Michael B. Jordan
Genre : Comédie, Romance
Durée : 1h35min
Année de production : 2014
Titre Original : That Awkward Moment
Note spectateurs : That Awkward Moment 3/5 (586)
Bande annonce :

059f3fc892dc9bcbba4924149e1d98b6

19539382″>Cliquez-ici pour voir la bande annonce 059f3fc892dc9bcbba4924149e1d98b6″> 19539382

059f3fc892dc9bcbba4924149e1d98b6

That Awkward Moment

Trois amis font le serment de rester célibataire. Mais l’un d’entre eux va tomber amoureux…
103627″ style= »display:inline; »>

That Awkward Moment

Format : MKV

That Awkward Moment

That.Awkward.Moment.2014.TRUEFRENCH.720p.BluRay.x264.AC3-ShowFr

(3180 Mo)

[Liens Interchangeables entre hébergeurs: 3x 1000 Mo + 1x 180 Mo]

Uptobox
Télécharger

Uplea
Télécharger

1fichier
Télécharger

Uploaded
Télécharger

Rapidgator
Télécharger

TurboBit
Télécharger

1 Lien Premium – 3.1 Go

Uptobox Premium
Télécharger

Uplea Premium
Télécharger

1fichier Premium
Télécharger

Uploaded Premium
Télécharger

TurboBit Premium
Télécharger

NFO :

Afficher / Masquer le texte fbba9e1cfb06f6e6746f6ab9141f27ed » class= »text_spoiler » style= »display:none; »>General
Unique ID : 66558729981700093726109787762080978848 (0x3212BEBFBD564083EC7102E7693D97A0)
Complete name : That.Awkward.Moment.2014.TRUEFRENCH.720p.BluRay.x264.AC3-.ShowFr.mkv
Format : Matroska
Format version : Version 4 / Version 2
File size : 3.11 GiB
Duration : 1h 34mn
Overall bit rate : 4 699 Kbps
Encoded date : UTC 2015-11-04 18:11:05
Writing application : mkvmerge v8.3.0 (‘Over the Horizon’) 64bit
Writing library : libebml v1.3.1 + libmatroska v1.4.2
DURATION : 00:00:05.588000000
NUMBER_OF_FRAMES : 1
NUMBER_OF_BYTES : 28
_STATISTICS_WRITING_APP : mkvmerge v8.3.0 (‘Over the Horizon’) 64bit
_STATISTICS_WRITING_DATE_UT : 2015-11-04 18:11:05
_STATISTICS_TAGS : BPS DURATION NUMBER_OF_FRAMES NUMBER_OF_BYTES

Video
ID : 2
Format : AVC
Format/Info : Advanced Video Codec
Format profile : [email protected]
Format settings, CABAC : Yes
Format settings, ReFrames : 5 frames
Codec ID : V_MPEG4/ISO/AVC
Duration : 1h 34mn
Bit rate : 4 319 Kbps
Width : 1 280 pixels
Height : 536 pixels
Display aspect ratio : 2.40:1
Frame rate mode : Constant
Frame rate : 23.976 fps
Color space : YUV
Chroma subsampling : 4:2:0
Bit depth : 8 bits
Scan type : Progressive
Bits/(Pixel*Frame) : 0.263
Stream size : 2.79 GiB (90%)
Writing library : x264 core 142 r2431 ac76440
Encoding settings : cabac=1 / ref=5 / deblock=1:0:0 / analyse=0x3:0x113 / me=umh / subme=8 / psy=1 / psy_rd=1.00:0.00 / mixed_ref=1 / me_range=16 / chroma_me=1 / trellis=1 / 8x8dct=1 / cqm=0 / deadzone=21,11 / fast_pskip=1 / chroma_qp_offset=-2 / threads=12 / lookahead_threads=2 / sliced_threads=0 / nr=0 / decimate=1 / interlaced=0 / bluray_compat=0 / constrained_intra=0 / bframes=3 / b_pyramid=2 / b_adapt=2 / b_bias=0 / direct=3 / weightb=1 / open_gop=0 / weightp=2 / keyint=240 / keyint_min=24 / scenecut=40 / intra_refresh=0 / rc_lookahead=50 / rc=2pass / mbtree=1 / bitrate=4319 / ratetol=1.0 / qcomp=0.60 / qpmin=0 / qpmax=69 / qpstep=4 / cplxblur=20.0 / qblur=0.5 / ip_ratio=1.40 / aq=1:1.00
Language : English
Default : Yes
Forced : No

Audio
ID : 1
Format : AC-3
Format/Info : Audio Coding 3
Mode extension : CM (complete main)
Format settings, Endianness : Big
Codec ID : A_AC3
Duration : 1h 34mn
Bit rate mode : Constant
Bit rate : 384 Kbps
Channel(s) : 6 channels
Channel positions : Front: L C R, Side: L R, LFE
Sampling rate : 48.0 KHz
Compression mode : Lossy
Stream size : 260 MiB (8%)
Language : French
Default : Yes
Forced : No
DURATION : 01:34:30.665000000
NUMBER_OF_FRAMES : 135960
NUMBER_OF_BYTES : 3061168493
_STATISTICS_WRITING_APP : mkvmerge v8.3.0 (‘Over the Horizon’) 64bit
_STATISTICS_WRITING_DATE_UT : 2015-11-04 18:11:05
_STATISTICS_TAGS : BPS DURATION NUMBER_OF_FRAMES NUMBER_OF_BYTES

Text
ID : 3
Format : UTF-8
Codec ID : S_TEXT/UTF8
Codec ID/Info : UTF-8 Plain Text
Title : Forced
Language : French
Default : Yes
Forced : No

Menu
00:00:00.000 : en:00:00:00.000
00:05:35.252 : en:00:05:35.252
00:11:40.658 : en:00:11:40.658
00:17:15.534 : en:00:17:15.534
00:23:20.649 : en:00:23:20.649
00:30:05.637 : en:00:30:05.637
00:36:32.607 : en:00:36:32.607
00:42:17.577 : en:00:42:17.577
00:49:23.127 : en:00:49:23.127
00:55:55.936 : en:00:55:55.936
01:02:36.211 : en:01:02:36.211
01:06:40.079 : en:01:06:40.079
01:09:56.734 : en:01:09:56.734
01:16:02.850 : en:01:16:02.850
01:22:59.349 : en:01:22:59.349
01:28:29.304 : en:01:28:29.304