Telecharger The Collection [BLURAY 720p] French

(TRUEFRENCH = Vraie voix française)

BLURAY 720p | MULTiLANGUES (Avec TRUEFRENCH)

The Collection

The Collection

The Collection

Origine du film : Américain
Réalisateur : Marcus Dunstan
Acteurs : Josh Stewart, Emma Fitzpatrick, Christopher McDonald
Genre : Action, Epouvante-horreur
Durée : 1h 22min
Année de production : 2011
Note spectateurs : The Collection 3,4/5 (211)
Bande annonce :

0e380699940aae80c59be3a5a3fd39d1

19536058″>Cliquez-ici pour voir la bande annonce 0e380699940aae80c59be3a5a3fd39d1″> 19536058

0e380699940aae80c59be3a5a3fd39d1

The Collection

Le jeune homme Arkin, après avoir échappé aux griffes vicieuses d'un serial killer surnommé « le collectionneur », doit se résoudre à aller sauver la fille d'un père fortuné, qui a été enlevée par ce fou dangereux.

Nom de la release : The.Collection.2012.MULTi.720p.BluRay.x264-RiV3R 31264″ style= »display:inline; »>

Qualité : BLURAY 720p
Format : MKV
Langue : Multilangage
Sous-titre : Français
Nombre de fichiers : 4 Fichiers
Taille des fichiers : 1000 Mo 404 Mo
Taille totale : 3404 Mo

Ps: Les liens sont interchangeables, prenez une partie de chaque hébergeur pour télécharger plusieurs fichiers en même temps. smile


[3 Liens de 1000 Mo 1 Lien de Mo]

1fichier
Télécharger

Uptobox
Télécharger

Free
Télécharger

Uploaded
Télécharger

Rapidgator
Télécharger

TurboBit
Télécharger

[Un Lien Premium de 3.32 Go]

1fichier
Télécharger

Uptobox
Télécharger

Uploaded
Télécharger

TurboBit
Télécharger

NFO :

Afficher / Masquer le texte 3e9ec93a0de1bd0a5a88a824bf6e350c » class= »text_spoiler » style= »display:none; »>Source : BD Z2 FR (DmC)
Video : x264 core 135 @2696 Kbps
Audio : VFF DTS 5.1 @1509 Kbps VO DTS 5.1 @1509 Kbps
Sous-titres : FR Complets
Date : 25/07/2013

General
Unique ID : 169809559410621412609880988527955012061 (0x7FC021AC078D90B09A3CE6E05F57E9DD)
Complete name : The.Collection.2012.MULTi.720p.BluRay.x264-RiV3R.mkv
Format : Matroska
Format version : Version 4 / Version 2
File size : 3.32 GiB
Duration : 1h 21mn
Overall bit rate : 5 830 Kbps
Encoded date : UTC 2013-07-25 11:49:38
Writing application : mkvmerge v6.3.0 ('You can't stop me!') built on Jun 29 2013 09:00:01
Writing library : libebml v1.3.0 libmatroska v1.4.0

Video
ID : 1
Format : AVC
Format/Info : Advanced Video Codec
Format profile : [email protected]
Format settings, CABAC : Yes
Format settings, ReFrames : 9 frames
Codec ID : V_MPEG4/ISO/AVC
Duration : 1h 21mn
Bit rate : 2 696 Kbps
Width : 1 280 pixels
Height : 544 pixels
Display aspect ratio : 2.35:1
Frame rate mode : Constant
Frame rate : 23.976 fps
Color space : YUV
Chroma subsampling : 4:2:0
Bit depth : 8 bits
Scan type : Progressive
Bits/(Pixel*Frame) : 0.161
Stream size : 1.54 GiB (46%)
Writing library : x264 core 135
Encoding settings : cabac=1 / ref=9 / deblock=1:-3:-3 / analyse=0x3:0x133 / me=umh / subme=11 / psy=1 / psy_rd=0.98:0.25 / mixed_ref=1 / me_range=64 / chroma_me=1 / trellis=2 / 8x8dct=1 / cqm=0 / deadzone=6,6 / fast_pskip=0 / chroma_qp_offset=-4 / threads=6 / lookahead_threads=1 / sliced_threads=0 / nr=0 / decimate=1 / interlaced=0 / bluray_compat=0 / constrained_intra=0 / bframes=16 / b_pyramid=2 / b_adapt=2 / b_bias=0 / direct=3 / weightb=1 / open_gop=0 / weightp=2 / keyint=240 / keyint_min=24 / scenecut=40 / intra_refresh=0 / rc_lookahead=240 / rc=crf / mbtree=1 / crf=18.8 / qcomp=0.60 / qpmin=0 / qpmax=69 / qpstep=4 / vbv_maxrate=50000 / vbv_bufsize=50000 / crf_max=0.0 / nal_hrd=none / ip_ratio=1.40 / aq=2:1.00
Language : English
Default : Yes
Forced : No
Color primaries : BT.709
Transfer characteristics : BT.709
Matrix coefficients : BT.709

Audio #1
ID : 2
Format : DTS
Format/Info : Digital Theater Systems
Mode : 16
Format settings, Endianness : Big
Codec ID : A_DTS
Duration : 1h 21mn
Bit rate mode : Constant
Bit rate : 1 509 Kbps
Channel count : 6 channels
Channel positions : Front: L C R, Side: L R, LFE
Sampling rate : 48.0 KHz
Bit depth : 16 bits
Compression mode : Lossy
Stream size : 881 MiB (26%)
Language : French
Default : Yes
Forced : No

Audio #2
ID : 3
Format : DTS
Format/Info : Digital Theater Systems
Mode : 16
Format settings, Endianness : Big
Codec ID : A_DTS
Duration : 1h 21mn
Bit rate mode : Constant
Bit rate : 1 509 Kbps
Channel count : 6 channels
Channel positions : Front: L C R, Side: L R, LFE
Sampling rate : 48.0 KHz
Bit depth : 16 bits
Compression mode : Lossy
Stream size : 881 MiB (26%)
Language : English
Default : No
Forced : No

Text
ID : 4
Format : UTF-8
Codec ID : S_TEXT/UTF8
Codec ID/Info : UTF-8 Plain Text
Title : FR Complets
Language : French
Default : No
Forced : No

 » itemscope= » » itemprop= »aggregateRating » style= »display: none; »>

Jeux Gratuit
15354131_1854970838071206_1069261547_o.png