Telecharger The Crow [BLURAY 720p] French

BLURAY 720p | MULTiLANGUES (VFQ)

The Crow

The Crow

The Crow

Origine du film : Américain
Réalisateur : Alex Proyas
Acteurs : Brandon Lee, Michael Wincott, Ernie Hudson
Genre : Action, Fantastique, Thriller
Durée : 1h41min
Date de sortie : 3 août 1994
Année de production : 1994
Distribué par : Gaumont Buena Vista International (GBVI)
Note spectateurs : The Crow

; »>3,6/5 (5 317)
Bande annonce :

2c5175611454ffed29da5d77dd5e1b33

19407387″>Cliquez-ici pour voir la bande annonce 2c5175611454ffed29da5d77dd5e1b33″> 19407387

2c5175611454ffed29da5d77dd5e1b33

The Crow

La veille de leur mariage, Eric Draven et Shelly Webster sont sauvagement assassinés. Un an plus tard, un corbeau ramène Eric à la vie au cœur d'une ville plongée dans les ténèbres. Eric va se laisser conduire là où sa vengeance l'appelle. Pour que justice soit faite. Pour l'amour de Shelly. 38117″ style= »display:inline; »>

Qualité : BLURAY 720p
Format : MKV
Langue : Multilangage
Sous-titre : Français
Découpé avec : Winrar
Nombre de fichiers : 4 Fichiers
Taille des fichiers : 1000 Mo 822 Mo

[Liens Interchangeables]

The.Crow.1994.MULTI.720p.BluRay.x264.AC3-LCDS ( 3822 Mo)

1fichier
Télécharger

Uptobox
Télécharger

Free
Télécharger

Uploaded
Télécharger

Rapidgator
Télécharger

TurboBit
Télécharger

[ 1 lien Premium – 3,8 Go ]

1fichier Premium
Télécharger

Uptobox Premium
Télécharger

Free Premium
Télécharger

BayFiles Premium
Télécharger

Uploaded Premium
Télécharger

Rapidgator Premium
Télécharger

TurboBit Premium
Télécharger

NFO :

Afficher / Masquer le texte d398560bc20c09580eeaec8ca3f6fdcc » class= »text_spoiler » style= »display:none; »>General
Complete name : The.Crow.1994.MULTI.720p.BluRay.x264.AC3-LCDS.mkv
Format : Matroska
Format version : Version 4 / Version 2
File size : 3.73 GiB
Duration : 1h 37mn
Overall bit rate : 5 483 Kbps
Encoded date : UTC 2013-10-08 12:04:48
Writing application : mkvmerge v6.4.1 ('Omega Point') built on Sep 16 2013 22:05:10
Writing library : libebml v1.3.0 libmatroska v1.4.1

Video
ID : 1
Format : AVC
Format/Info : Advanced Video Codec
Format profile : [email protected]
Format settings, CABAC : Yes
Format settings, ReFrames : 8 frames
Codec ID : V_MPEG4/ISO/AVC
Duration : 1h 37mn
Bit rate : 4 905 Kbps
Width : 1 280 pixels
Height : 688 pixels
Display aspect ratio : 1.85:1
Frame rate mode : Constant
Frame rate : 25.000 fps
Color space : YUV
Chroma subsampling : 4:2:0
Bit depth : 8 bits
Scan type : Progressive
Bits/(Pixel*Frame) : 0.223
Stream size : 3.27 GiB (88%)
Title : Video
Writing library : x264 core 56 svn-669
Encoding settings : cabac=1 / ref=5 / deblock=1:0:0 / analyse=0x3:0x113 / me=umh / subme=7 / brdo=1 / mixed_ref=1 / me_range=16 / chroma_me=1 / trellis=1 / 8x8dct=1 / cqm=0 / deadzone=21,11 / chroma_qp_offset=0 / threads=6 / nr=0 / decimate=1 / mbaff=0 / bframes=3 / b_pyramid=1 / b_adapt=1 / b_bias=0 / direct=1 / wpredb=1 / bime=1 / keyint=250 / keyint_min=25 / scenecut=40(pre) / rc=2pass / bitrate=4905 / ratetol=1.0 / rceq='blurCplx^(1-qComp)' / qcomp=0.60 / qpmin=10 / qpmax=51 / qpstep=4 / cplxblur=20.0 / qblur=0.5 / ip_ratio=1.40 / pb_ratio=1.30
Default : Yes
Forced : No

Audio #1
ID : 2
Format : AC-3
Format/Info : Audio Coding 3
Mode extension : CM (complete main)
Format settings, Endianness : Big
Codec ID : A_AC3
Duration : 1h 37mn
Bit rate mode : Constant
Bit rate : 448 Kbps
Channel(s) : 6 channels
Channel positions : Front: L C R, Side: L R, LFE
Sampling rate : 48.0 KHz
Bit depth : 16 bits
Compression mode : Lossy
Stream size : 312 MiB (8%)
Title : Anglais 5.1
Language : English
Default : No
Forced : No

Audio #2
ID : 3
Format : AC-3
Format/Info : Audio Coding 3
Mode extension : CM (complete main)
Format settings, Endianness : Big
Codec ID : A_AC3
Duration : 1h 37mn
Bit rate mode : Constant
Bit rate : 128 Kbps
Channel(s) : 2 channels
Channel positions : Front: L R
Sampling rate : 48.0 KHz
Bit depth : 16 bits
Compression mode : Lossy
Stream size : 89.2 MiB (2%)
Title : Francais 2.0
Language : French
Default : Yes
Forced : No

Text #1
ID : 4
Format : UTF-8
Codec ID : S_TEXT/UTF8
Codec ID/Info : UTF-8 Plain Text
Title : Anglais
Language : English
Default : No
Forced : No

Text #2
ID : 5
Format : UTF-8
Codec ID : S_TEXT/UTF8
Codec ID/Info : UTF-8 Plain Text
Title : Francais
Language : French
Default : No
Forced : No