Télécharger The Do-Over[BLURAY 720p] VOSTFR

Qualité WEB-DL 720p | VOSTFR

Origine du film : Américain
Réalisateur : Steven Brill
Acteurs : Adam Sandler, David Spade, Paula Patton
Genre : Comédie
Date de sortie : 27 mai 2016
Année de production : 2016
Distribué par : Netflix France
Note spectateurs : 3,1/5 (IMDB 1043)

Deux losers décident de se faire passer pour morts et recommencer leurs vies à zéro. Ils prennent de nouvelles identités… Avant de se rendre compte que ceux qu’ils prétendent être ont des problèmes bien plus sérieux que les leurs.
news-id-136159″ style= »display:inline; »>

Format : x264
Découpé avec : Winrar

The Do Over 2016 (VOSTFR) NETFLIX WEBRip DD5.1 720p x264-SVR

(3560 Mo)

[Liens Interchangeables entre hébergeurs: 3x 1000 Mo + 1x 560 Mo]

Uptobox
Télécharger

Uplea
Télécharger

1fichier
Télécharger

Uploaded
Télécharger

Rapidgator
Télécharger

TurboBit
Télécharger

[ 1 Lien Premium ]

Uptobox
Télécharger

Uplea
Télécharger

1fichier
Télécharger

Uploaded
Télécharger

TurboBit
Télécharger

NFO :

3cd48fd6518d0568fd77e9b6cf98c7ee » class= »text_spoiler » style= »display:none; »>

F i L E   i N F O  ░▒▓▓▓▓▓▓▓▓▓▓▓▓▓▓▓▓▓▓▓▓▓▓▓▓▓▓▓▓▓▓▓▓▓▓▓▓▓▓▓▓▓▓▓
└────────────────────────────────────────────────────────────────────────┘


Format : Matroska
Format version : Version 2
File size : 3.48 GiB
Duration : 1h 47mn
Overall bit rate : 4 620 Kbps
Encoded date : UTC 2016-05-28 04:15:54
Writing application : mkvmerge v5.6.0 ('Kenya Kane') built on May 28 2012 06:47:39
Writing library : libebml v1.2.2 + libmatroska v1.3.0

Video
ID : 1
Format : AVC
Format/Info : Advanced Video Codec
Format profile : [email protected]
Format settings, CABAC : Yes
Format settings, ReFrames : 8 frames
Muxing mode : Header stripping
Codec ID : V_MPEG4/ISO/AVC
Duration : 1h 47mn
Bit rate : 3 888 Kbps
Width : 1 280 pixels
Height : 692 pixels
Display aspect ratio : 1.85:1
Frame rate mode : Constant
Frame rate : 23.976 fps
Color space : YUV
Chroma subsampling : 4:2:0
Bit depth : 8 bits
Scan type : Progressive
Bits/(Pixel*Frame) : 0.183
Stream size : 2.93 GiB (84%)
Writing library : x264 core 148 r2692 64f4e24
Encoding settings : cabac=1 / ref=8 / deblock=1:-2:-2 / analyse=0x3:0x133 / me=umh / subme=9 / psy=1 / psy_rd=1.00:0.15 / mixed_ref=1 / me_range=16 / chroma_me=1 / trellis=2 / 8x8dct=1 / cqm=0 / deadzone=21,11 / fast_pskip=1 / chroma_qp_offset=-3 / threads=12 / lookahead_threads=1 / sliced_threads=0 / nr=0 / decimate=1 / interlaced=0 / bluray_compat=0 / constrained_intra=0 / bframes=4 / b_pyramid=2 / b_adapt=2 / b_bias=0 / direct=3 / weightb=1 / open_gop=0 / weightp=2 / keyint=240 / keyint_min=23 / scenecut=40 / intra_refresh=0 / rc_lookahead=60 / rc=crf / mbtree=1 / crf=18.0 / qcomp=0.70 / qpmin=0 / qpmax=69 / qpstep=4 / ip_ratio=1.40 / aq=3:0.80
Language : English
Default : Yes
Forced : No
Color range : Limited
Color primaries : BT.709
Transfer characteristics : BT.709
Matrix coefficients : BT.709

Audio
ID : 2
Format : AC-3
Format/Info : Audio Coding 3
Mode extension : CM (complete main)
Format settings, Endianness : Big
Muxing mode : Header stripping
Codec ID : A_AC3
Duration : 1h 47mn
Bit rate mode : Constant
Bit rate : 640 Kbps
Channel(s) : 6 channels
Channel positions : Front: L C R, Side: L R, LFE
Sampling rate : 48.0 KHz
Compression mode : Lossy
Stream size : 493 MiB (14%)
Language : English
Default : Yes
Forced : Yes

Text
ID : 3
Format : UTF-8
Codec ID : S_TEXT/UTF8
Codec ID/Info : UTF-8 Plain Text
Language : French
Default : Yes
Forced : No