Telecharger The Gambler [BLURAY 720p] French

(TRUEFRENCH = Vraie voix française)

Qualité BLURAY 720p | TRUEFRENCH

The Gambler

The Gambler

Origine du film : Américain
Réalisateur : Rupert Wyatt
Acteurs : Mark Wahlberg, John Goodman, Brie Larson
Genre : Drame, Thriller, Policier
Durée : 1h51min
Année de production : 2014
Distribué par : Paramount Home Entertainment
Note spectateurs : The Gambler

; »>3/5 (146)
Bande annonce :

a8e47c30698506810304b8ee4944a61f

19553820″>Cliquez-ici pour voir la bande annonce a8e47c30698506810304b8ee4944a61f »> 19553820

a8e47c30698506810304b8ee4944a61f

The Gambler

Un professeur de littérature accro aux jeux d’argent est la cible d’une horde de gangsters.
86011″ style= »display:inline; »>

The Gambler

Format : MKV
Sous-titres : Forcé pour les passages en langue étrangère.

The Gambler

The.Gambler.2014.TRUEFRENCH.720p.BluRay.x264-Goatlove

(4470 Mo)

[Liens Interchangeables entre hébergeurs: 4x 1000 Mo + 1x 470 Mo]

Uptobox
Télécharger

Uplea
Télécharger

1fichier
Télécharger

Uploaded
Télécharger

Rapidgator
Télécharger

TurboBit
Télécharger

1 Lien Premium – 4.4 Go

Uptobox Premium
Télécharger

Uplea Premium
Télécharger

1fichier Premium
Télécharger

Uploaded Premium
Télécharger

TurboBit Premium
Télécharger

NFO :

Afficher / Masquer le texte 7f44cb136f7e4778fa82b7afbf9f217b » class= »text_spoiler » style= »display:none; »>General
Complete name : X:The.Gambler.2014.TRUEFRENCH.720p.BluRay.x264-GoatloveThe.Gambler.2014.TRUEFRENCH.720p.BluRay.x264-Goatlove.mkv
Format : Matroska
Format version : Version 2
File size : 4.37 GiB
Duration : 1h 50mn
Overall bit rate : 5 632 Kbps
Writing application : mkvmerge v6.6.0 (‘The Edge Of The In Between’) built on Dec 1 2013 17:55:00
Writing library : libebml v1.3.0 + libmatroska v1.4.1

Video
ID : 1
Format : AVC
Format/Info : Advanced Video Codec
Format profile : [email protected]
Format settings, CABAC : Yes
Format settings, ReFrames : 5 frames
Codec ID : V_MPEG4/ISO/AVC
Duration : 1h 50mn
Bit rate : 4 994 Kbps
Width : 1 280 pixels
Height : 536 pixels
Display aspect ratio : 2.40:1
Frame rate mode : Constant
Frame rate : 23.976 fps
Color space : YUV
Chroma subsampling : 4:2:0
Bit depth : 8 bits
Scan type : Progressive
Bits/(Pixel*Frame) : 0.304
Stream size : 3.78 GiB (87%)
Writing library : x264 core 146 r2538 121396c
Encoding settings : cabac=1 / ref=5 / deblock=1:0:0 / analyse=0x3:0x133 / me=umh / subme=8 / psy=1 / psy_rd=1.00:0.00 / mixed_ref=1 / me_range=16 / chroma_me=1 / trellis=1 / 8x8dct=1 / cqm=0 / deadzone=21,11 / fast_pskip=0 / chroma_qp_offset=-2 / threads=12 / lookahead_threads=2 / sliced_threads=0 / nr=0 / decimate=1 / interlaced=0 / bluray_compat=0 / constrained_intra=0 / bframes=3 / b_pyramid=2 / b_adapt=2 / b_bias=0 / direct=3 / weightb=1 / open_gop=0 / weightp=2 / keyint=250 / keyint_min=23 / scenecut=40 / intra_refresh=0 / rc_lookahead=50 / rc=2pass / mbtree=1 / bitrate=4994 / ratetol=1.0 / qcomp=0.60 / qpmin=0 / qpmax=69 / qpstep=4 / cplxblur=20.0 / qblur=0.5 / ip_ratio=1.40 / aq=1:1.00
Language : English
Default : Yes
Forced : No

Audio
ID : 2
Format : AC-3
Format/Info : Audio Coding 3
Mode extension : CM (complete main)
Format settings, Endianness : Big
Codec ID : A_AC3
Duration : 1h 50mn
Bit rate mode : Constant
Bit rate : 640 Kbps
Channel(s) : 6 channels
Channel positions : Front: L C R, Side: L R, LFE
Sampling rate : 48.0 KHz
Compression mode : Lossy
Stream size : 508 MiB (11%)
Title : French
Language : French
Default : Yes
Forced : No

Text
ID : 3
Format : UTF-8
Codec ID : S_TEXT/UTF8
Codec ID/Info : UTF-8 Plain Text
Title : French Forced
Language : French
Default : Yes
Forced : Yes

Menu
00:00:00.000 : en:00:00:00.000
00:08:21.376 : en:00:08:21.376
00:16:46.422 : en:00:16:46.422
00:25:22.020 : en:00:25:22.020
00:29:16.254 : en:00:29:16.254
00:34:09.422 : en:00:34:09.422
00:45:08.456 : en:00:45:08.456
00:51:00.516 : en:00:51:00.516
00:59:08.336 : en:00:59:08.336
01:06:22.729 : en:01:06:22.729
01:12:39.230 : en:01:12:39.230
01:21:58.664 : en:01:21:58.664
01:24:17.094 : en:01:24:17.094
01:31:11.758 : en:01:31:11.758
01:35:35.563 : en:01:35:35.563
01:46:04.441 : en:01:46:04.441

Jeux Gratuit
15354131_1854970838071206_1069261547_o.png