Telecharger The Guest [BLURAY 720p] French

Qualité BLURAY 720p | FRENCH | son DTS

The Guest

The Guest

Origine du film : Américain
Réalisateur : Adam Wingard
Acteurs : Dan Stevens, Maika Monroe, Leland Orser
Genre : Thriller, Action
Durée : 1h39min
Année de production : 2014
Note spectateurs : The Guest

; »>3,2/5 (149)
Bande annonce :

faeb0c1878dbf983138386483397f482

19547384″>Cliquez-ici pour voir la bande annonce faeb0c1878dbf983138386483397f482″> 19547384

faeb0c1878dbf983138386483397f482

The Guest

Un soldat s’investit auprès de la famille d’un ancien camarade tombé au combat. Mais il devient un danger pour ces gens dès lors qu’ils découvrent les dangereux secrets de son passé.
105012″ style= »display:inline; »>

The Guest

Format : MKV
Découpé avec : Winrar

The Guest

The.Guest.2014.LiMiTED.FRENCH.720p.BluRay.x264-AKATSUKi

(4462 Mo)

[Liens Interchangeables entre hébergeurs: 4x 1000 Mo + 1x 462 Mo]

Uptobox
Télécharger

Uplea
Télécharger

1fichier
Télécharger

Uploaded
Télécharger

Rapidgator
Télécharger

TurboBit
Télécharger

[Liens PREMIUM]

Uptobox
Télécharger

Uplea
Télécharger

1fichier
Télécharger

Uploaded
Télécharger

Rapidgator
Télécharger

TurboBit
Télécharger

NFO :

Afficher / Masquer le texte 2de05634ae1dd00b7a36caf82a3cc241″ class= »text_spoiler » style= »display:none; »>General
Format : Matroska
Format version : Version 4 / Version 2
File size : 4.36 GiB
Duration : 1h 39mn
Overall bit rate : 6 252 Kbps
Encoded date : UTC 2015-11-14 07:29:59
Writing application : mkvmerge v8.3.0 (‘Over the Horizon’) 64bit
Writing library : libebml v1.3.1 + libmatroska v1.4.2
DURATION : 01:39:33.583000000
NUMBER_OF_FRAMES : 2230
NUMBER_OF_BYTES : 7208054
_STATISTICS_WRITING_APP : mkvmerge v8.3.0 (‘Over the Horizon’) 64bit
_STATISTICS_WRITING_DATE_UTC : 2015-11-14 07:29:59
_STATISTICS_TAGS : BPS DURATION NUMBER_OF_FRAMES NUMBER_OF_BYTES

Video
ID : 1
Format : AVC
Format/Info : Advanced Video Codec
Format profile : [email protected]
Format settings, CABAC : Yes
Format settings, ReFrames : 5 frames
Codec ID : V_MPEG4/ISO/AVC
Duration : 1h 39mn
Bit rate : 4 734 Kbps
Width : 1 280 pixels
Height : 536 pixels
Display aspect ratio : 2.40:1
Frame rate mode : Constant
Frame rate : 24.000 fps
Color space : YUV
Chroma subsampling : 4:2:0
Bit depth : 8 bits
Scan type : Progressive
Bits/(Pixel*Frame) : 0.288
Stream size : 3.22 GiB (74%)
Writing library : x264 core 146 r2538 121396c
Encoding settings : cabac=1 / ref=5 / deblock=1:-2:-2 / analyse=0x3:0x113 / me=umh / subme=8 / psy=1 / psy_rd=1.00:0.00 / mixed_ref=1 / me_range=16 / chroma_me=1 / trellis=1 / 8x8dct=1 / cqm=0 / deadzone=21,11 / fast_pskip=0 / chroma_qp_offset=-2 / threads=6 / lookahead_threads=1 / sliced_threads=0 / nr=0 / decimate=1 / interlaced=0 / bluray_compat=0 / constrained_intra=0 / bframes=3 / b_pyramid=2 / b_adapt=2 / b_bias=0 / direct=3 / weightb=1 / open_gop=0 / weightp=2 / keyint=240 / keyint_min=24 / scenecut=40 / intra_refresh=0 / rc_lookahead=50 / rc=2pass / mbtree=1 / bitrate=4734 / ratetol=1.0 / qcomp=0.60 / qpmin=0 / qpmax=69 / qpstep=4 / cplxblur=20.0 / qblur=0.5 / ip_ratio=1.40 / aq=1:0.70
Default : Yes
Forced : No

Audio
ID : 2
Format : DTS
Format/Info : Digital Theater Systems
Mode : 16
Format settings, Endianness : Big
Codec ID : A_DTS
Duration : 1h 39mn
Bit rate mode : Constant
Bit rate : 1 509 Kbps
Channel(s) : 6 channels
Channel positions : Front: L C R, Side: L R, LFE
Sampling rate : 48.0 KHz
Bit depth : 16 bits
Compression mode : Lossy
Stream size : 1.05 GiB (24%)
Language : French
Default : Yes
Forced : No

Text
ID : 3
Format : PGS
Muxing mode : zlib
Codec ID : S_HDMV/PGS
Codec ID/Info : The same subtitle format used on BDs/HD-DVDs
Title : French (SDH)
Default : No
Forced : No

Menu
00:00:00.000 : en:00:00:00.000
00:09:02.208 : en:00:09:02.208
00:16:52.000 : en:00:16:52.000
00:25:32.417 : en:00:25:32.417
00:32:49.208 : en:00:32:49.208
00:40:03.500 : en:00:40:03.500
00:46:27.708 : en:00:46:27.708
00:54:27.542 : en:00:54:27.542
01:02:45.125 : en:01:02:45.125
01:08:45.208 : en:01:08:45.208
01:19:30.000 : en:01:19:30.000
01:26:51.500 : en:01:26:51.500

Jeux Gratuit
15354131_1854970838071206_1069261547_o.png