Telecharger The Haunting in Connecticut 2: Ghosts of Georgia [BLURAY 720p] French

(TRUEFRENCH = Vraie voix française)

BLURAY 720p | MULTiLANGUES (Avec TRUEFRENCH) | DTS

The Haunting in Connecticut 2: Ghosts of Georgia

The Haunting in Connecticut 2: Ghosts of Georgia

The Haunting in Connecticut 2: Ghosts of Georgia

Origine du film : Américain
Réalisateur : Tom Elkins
Acteurs : Abigail Spencer, Chad Michael Murray, Katee Sackhoff
Genre : Epouvante-horreur
Durée : 1h 41min
Année de production : 2013
Note spectateurs : The Haunting in Connecticut 2: Ghosts of Georgia 2,8/5 (99)
Bande annonce :

242434162f78552f5ef008b510310104

19507708″>Cliquez-ici pour voir la bande annonce 242434162f78552f5ef008b510310104″> 19507708

242434162f78552f5ef008b510310104

The Haunting in Connecticut 2: Ghosts of Georgia

Récemment installés près d'une ancienne plantation du Vieux Sud, un jeune couple commence à s'inquiéter lorsque leur fille fait la rencontre de mystérieux étrangers que personne d'autre ne peut voir. Une crainte qui s'amplifie lorsqu'eux mêmes deviennent les témoins de phénomènes terrifiants dans et autour de leur maison.

Nom de la release : The Haunting in Connecticut 2. Ghosts of Georgia 2013 MULTi TRUEFRENCH 720p BluRay DTS x264-STEAL 29071″ style= »display:inline; »>

Qualité : BLURAY 720p
Format : MKV
Sous-titre : Multi
Nombre de fichiers : 6 Fichiers
Taille des fichiers : 1000 Mo 78 Mo
Taille totale : 5078 Mo

[Liens Interchangeables]

1fichier
Télécharger

Uptobox
Télécharger

Free
Télécharger

Uploaded
Télécharger

Rapidgator
Télécharger

TurboBit
Télécharger

[2 Lien PREMIUM]

Uploaded
Télécharger

[1 Lien PREMIUM]

1fichier
Télécharger

Uptobox
Télécharger

TurboBit
Télécharger

NFO :

Afficher / Masquer le texte 8762d380e602e5e10b61122d49928bc4″ class= »text_spoiler » style= »display:none; »>General
Unique ID : 190783622966506297414390012270761240512 (0x8F8796D83C388ED9BAF02F512E1C67C0)
Complete name : D:GHOSTS OF GEORGIA 2013 VFF Multi DTS 5.1 BluRay x264 720p-STEAL.mkv
Format : Matroska
File size : 4.96 GiB
Duration : 1h 41mn
Overall bit rate : 7 018 Kbps
Encoded date : UTC 2013-06-24 01:24:47
Writing application : mkvmerge v6.2.0 ('Promised Land') built on Apr 28 2013 12:22:01
Writing library : libebml v1.3.0 libmatroska v1.4.0

Video
ID : 1
Format : AVC
Format/Info : Advanced Video Codec
Format profile : [email protected]
Format settings, CABAC : Yes
Format settings, ReFrames : 9 frames
Codec ID : V_MPEG4/ISO/AVC
Duration : 1h 41mn
Bit rate : 4 000 Kbps
Width : 1 280 pixels
Height : 720 pixels
Display aspect ratio : 16:9
Frame rate : 23.976 fps
Color space : YUV
Chroma subsampling : 4:2:0
Bit depth : 8 bits
Scan type : Progressive
Bits/(Pixel*Frame) : 0.181
Stream size : 2.73 GiB (55%)
Title : GHOSTS OF GEORGIA 2013 High [email protected] Resolution 1280p/ 720p Frame rate 23.976 fps Release ░V░Eyes
Writing library : x264 core 133 r2334 a3ac64b
Encoding settings : cabac=1 / ref=9 / deblock=1:-3:-3 / analyse=0x3:0x113 / me=umh / subme=11 / psy=1 / psy_rd=0.97:0.02 / mixed_ref=1 / me_range=128 / chroma_me=1 / trellis=2 / 8x8dct=1 / cqm=0 / deadzone=21,11 / fast_pskip=0 / chroma_qp_offset=-2 / threads=18 / lookahead_threads=3 / sliced_threads=0 / nr=0 / decimate=1 / interlaced=0 / bluray_compat=0 / constrained_intra=0 / bframes=8 / b_pyramid=2 / b_adapt=2 / b_bias=0 / direct=1 / weightb=1 / open_gop=1 / weightp=2 / keyint=240 / keyint_min=23 / scenecut=40 / intra_refresh=0 / rc_lookahead=240 / rc=2pass / mbtree=1 / bitrate=4000 / ratetol=1.0 / qcomp=0.60 / qpmin=0 / qpmax=69 / qpstep=4 / cplxblur=20.0 / qblur=0.5 / vbv_maxrate=50000 / vbv_bufsize=50000 / nal_hrd=none / ip_ratio=1.40 / aq=2:1.00
Language : English
Color primaries : BT.709-5, BT.1361, IEC 61966-2-4, SMPTE RP177
Transfer characteristics : BT.709-5, BT.1361
Matrix coefficients : BT.709-5, BT.1361, IEC 61966-2-4 709, SMPTE RP177

Audio #1
ID : 2
Format : DTS
Format/Info : Digital Theater Systems
Codec ID : A_DTS
Duration : 1h 41mn
Bit rate mode : Constant
Bit rate : 1 510 Kbps
Channel(s) : 6 channels
Channel positions : Front: L C R, Side: L R, LFE
Sampling rate : 48.0 KHz
Bit depth : 16 bits
Compression mode : Lossy
Stream size : 1.07 GiB (22%)
Title : VFF DTS-5.1_1509 kbps 16-bit 48khz
Language : French

Audio #2
ID : 3
Format : DTS
Format/Info : Digital Theater Systems
Codec ID : A_DTS
Duration : 1h 41mn
Bit rate mode : Constant
Bit rate : 1 510 Kbps
Channel(s) : 6 channels
Channel positions : Front: L C R, Side: L R, LFE
Sampling rate : 48.0 KHz
Bit depth : 24 bits
Compression mode : Lossy
Delay relative to video : 12s 300ms
Stream size : 1.07 GiB (22%)
Title : V.O DTS-5.1_1509 kbps 24-bit 48khz
Language : English

Text #1
ID : 4
Format : UTF-8
Codec ID : S_TEXT/UTF8
Codec ID/Info : UTF-8 Plain Text
Title : Sous-titres Franτais forcΘs.SRT
Language : French

Text #2
ID : 5
Format : UTF-8
Codec ID : S_TEXT/UTF8
Codec ID/Info : UTF-8 Plain Text
Title : Sous-titres Franτais complets.SRT
Language : French

Text #3
ID : 6
Format : UTF-8
Codec ID : S_TEXT/UTF8
Codec ID/Info : UTF-8 Plain Text
Title : Full Subtitles English.SRT
Language : English

Menu
00:00:00.000 : en: 01.
00:05:39.923 : en: 02.
00:11:26.811 : en: 03.
00:16:24.775 : en: 04.
00:21:24.867 : en: 05.
00:27:23.433 : en: 06.
00:32:39.749 : en: 07.
00:37:11.646 : en: 08.
00:42:25.418 : en: 09.
00:47:59.543 : en: 10.
01:00:51.565 : en: 11.
01:05:54.033 : en: 12.
01:12:44.402 : en: 13.
01:21:24.129 : en: 14.
01:31:47.085 : en: 15.
01:34:59.903 : en: 16.

Jeux Gratuit
15354131_1854970838071206_1069261547_o.png