Telecharger The Killer [DVDRiP] French

Qualité BLURAY 1080p | MULTiLANGUES

The Killer

The Killer

The Killer

Origine du film : Hong-Kongais
Réalisateur : John Woo
Acteurs : Chow Yun-Fat, Danny Lee, Sally Yeh
Genre : Policier, Action, Drame
Durée : 1h50min
Date de sortie : 3 mai 1995
Année de production : 1989
Titre Original : Dip huet seung hung
Distribué par : Metropolitan FilmExport
Note spectateurs : The Killer

; »>3,9/5 (1 422)
Bande annonce :

faae2a4b02df3b6a634462b4958f496b

19428609″>Cliquez-ici pour voir la bande annonce faae2a4b02df3b6a634462b4958f496b »> 19428609

faae2a4b02df3b6a634462b4958f496b

The Killer

Comment un tueur à gages, décidé à changer de vie va, lors de son dernier « contrat », provoquer la cécité d’une jeune chanteuse. Pour trouver l’argent nécessaire à l’opération de la jeune femme, il accepte un autre contrat.
104939″ style= »display:inline; »>

The Killer

Format : MKV
Découpé avec : Winrar

The Killer

The.Killer.1989.Repack.MULTI.1080p.BlueRay.X264-Doudou

(9374 Mo)

[Liens Interchangeables entre hébergeurs: 9x 1000 Mo + 1x 374 Mo]

Uptobox
Télécharger

Uplea
Télécharger

1fichier
Télécharger

Uploaded
Télécharger

Rapidgator
Télécharger

TurboBit
Télécharger

[ Liens Premium ]

Uptobox
Télécharger

Uplea
Télécharger

1fichier
Télécharger

Uploaded
Télécharger

TurboBit
Télécharger

NFO :

Afficher / Masquer le texte fde4801baa5c3b20615fa318a7560b59″ class= »text_spoiler » style= »display:none; »>The.Killer.1989.Repack.MULTI.1080p.BlueRay.X264-Doudou.zone-telechargement.com.mkv
Format : Matroska
Format version : Version 4 / Version 2
File size : 9.15 GiB
Duration : 1h 51mn
Overall bit rate : 11.8 Mbps
Encoded date : UTC 2014-05-05 00:49:17
Writing application : mkvmerge v6.9.1 (‘Blue Panther’) 32bit built on Apr 18 2014 18:15:44
Writing library : libebml v1.3.0 + libmatroska v1.4.1

Video
ID : 2
Format : AVC
Format/Info : Advanced Video Codec
Format profile : [email protected]
Format settings, CABAC : Yes
Format settings, ReFrames : 4 frames
Codec ID : V_MPEG4/ISO/AVC
Duration : 1h 51mn
Bit rate : 11.0 Mbps
Width : 1 920 pixels
Height : 1 038 pixels
Display aspect ratio : 1.85:1
Frame rate mode : Constant
Frame rate : 23.976 fps
Color space : YUV
Chroma subsampling : 4:2:0
Bit depth : 8 bits
Scan type : Progressive
Bits/(Pixel*Frame) : 0.230
Stream size : 8.33 GiB (91%)
Writing library : x264 core 115 r1947+532 361db68
Encoding settings : cabac=1 / ref=4 / deblock=1:-3:-3 / analyse=0x3:0x113 / me=umh / subme=9 / psy=1 / fade_compensate=0.00 / psy_rd=1.05:0.10 / mixed_ref=1 / me_range=32 / chroma_me=1 / trellis=2 / 8x8dct=1 / cqm=2 / deadzone=21,11 / fast_pskip=0 / chroma_qp_offset=-2 / threads=12 / sliced_threads=0 / nr=0 / decimate=1 / interlaced=0 / bluray_compat=0 / constrained_intra=0 / fgo=0 / bframes=6 / b_pyramid=2 / b_adapt=2 / b_bias=0 / direct=3 / weightb=1 / open_gop=0 / weightp=2 / keyint=250 / keyint_min=23 / scenecut=40 / intra_refresh=0 / rc_lookahead=60 / rc=2pass / mbtree=1 / bitrate=10967 / ratetol=2.0 / qcomp=0.70 / qpmin=1 / qpmax=63 / qpstep=4 / cplxblur=20.0 / qblur=0.5 / vbv_maxrate=40000 / vbv_bufsize=30000 / nal_hrd=none / ip_ratio=1.40 / aq=1:0.90
Language : Chinese
Default : Yes
Forced : Yes

Audio #1
ID : 1
Format : AC-3
Format/Info : Audio Coding 3
Mode extension : CM (complete main)
Format settings, Endianness : Big
Codec ID : A_AC3
Duration : 1h 51mn
Bit rate mode : Constant
Bit rate : 192 Kbps
Channel count : 2 channels
Channel positions : Front: L R
Sampling rate : 48.0 KHz
Bit depth : 16 bits
Compression mode : Lossy
Stream size : 153 MiB (2%)
Language : French
Default : Yes
Forced : No

Audio #2
ID : 3
Format : AC-3
Format/Info : Audio Coding 3
Mode extension : CM (complete main)
Format settings, Endianness : Big
Codec ID : A_AC3
Duration : 1h 51mn
Bit rate mode : Constant
Bit rate : 640 Kbps
Channel count : 6 channels
Channel positions : Front: L C R, Side: L R, LFE
Sampling rate : 48.0 KHz
Bit depth : 16 bits
Compression mode : Lossy
Stream size : 508 MiB (5%)
Title : AC3 5.1 640 kbps |Оригинал|
Language : Chinese
Default : No
Forced : Yes