Telecharger The Killer Inside Me [BLURAY 720p] French

(TRUEFRENCH = Vraie voix française)

BLURAY 720p | MULTiLANGUES (Avec TRUEFRENCH) | DTS

The Killer Inside Me

The Killer Inside Me

The Killer Inside Me

Origine du film : Canadien, suédois, américain, britannique
Réalisateur : Michael Winterbottom
Acteurs : Casey Affleck, Jessica Alba, Kate Hudson
Genre : Thriller, Drame
Durée : 2h 0min
Date de sortie : 11 août 2010
Année de production : 2010
Distribué par : Mars Distribution
Note presse : The Killer Inside Me 3,1/5
Note spectateurs : The Killer Inside Me 2,6/5 (2 200)
Bande annonce :

c3da3921f8191c71bff6ccc98988c5f4

19120878″>Cliquez-ici pour voir la bande annonce c3da3921f8191c71bff6ccc98988c5f4″> 19120878

c3da3921f8191c71bff6ccc98988c5f4

The Killer Inside Me

Lou a un tas de problèmes. Des problèmes avec les femmes. Des problèmes avec la loi. Trop de meurtres commencent à s'accumuler dans la juridiction de sa petite ville du Texas. Et surtout, Lou est un tueur sadique et psychopathe. Lorsque les soupçons commencent à peser sur lui, il ne lui reste pas beaucoup de temps avant d'être démasqué…

Nom de la release : The.Killer.Inside.Me.2010.MULTi.720p.BluRay.x264-RiV3R 31793″ style= »display:inline; »>

Qualité : BLURAY 720p
Format : MKV
Sous-titre : Français
Nombre de fichiers : 7 Fichiers
Taille des fichiers : 1000 Mo 437 Mo
Taille totale : 6437 Mo

[Liens Interchangeables]


[4 Liens de 1000 Mo 1 Lien de 437 Mo]

1fichier
Télécharger

Uptobox
Télécharger

Free
Télécharger

Uploaded
Télécharger

Rapidgator
Télécharger

TurboBit
Télécharger

[Un Lien Premium]

1fichier Premium
Télécharger

Uptobox Premium
Télécharger

TurboBit Premium
Télécharger

[2 Liens Premiums]

Uploaded Premium
Partie 1
Partie 2

NFO :

Afficher / Masquer le texte e90c386009619a536fefbd65b125b52d » class= »text_spoiler » style= »display:none; »>Source : BD Z2 (NL)
Video : x264 core 135 @5229 Kbps
Audio : VFF DTS 5.1 @1510 Kbps VO DTS 5.1 @1510 Kbps
Sous-titres : FR Complets
Date : 02/08/2013

General
Unique ID : 29508566135167915646944358521906214396 (0x163324A31731B99372A32C597A0D35FC)
Complete name : The.Killer.Inside.Me.2010.MULTi.720p.BluRay.x264-RiV3R.mkv
Format : Matroska
Format version : Version 4 / Version 2
File size : 6.29 GiB
Duration : 1h 49mn
Overall bit rate : 8 248 Kbps
Encoded date : UTC 2013-08-02 10:18:54
Writing application : mkvmerge v6.3.0 ('You can't stop me!') built on Jun 27 2013 20:27:21
Writing library : libebml v1.3.0 libmatroska v1.4.0

Video
ID : 1
Format : AVC
Format/Info : Advanced Video Codec
Format profile : [email protected]
Format settings, CABAC : Yes
Format settings, ReFrames : 9 frames
Codec ID : V_MPEG4/ISO/AVC
Duration : 1h 49mn
Bit rate : 5 229 Kbps
Width : 1 280 pixels
Height : 544 pixels
Display aspect ratio : 2.35:1
Frame rate mode : Variable
Frame rate : 23.976 fps
Color space : YUV
Chroma subsampling : 4:2:0
Bit depth : 8 bits
Scan type : Progressive
Bits/(Pixel*Frame) : 0.313
Stream size : 3.86 GiB (61%)
Writing library : x264 core 135
Encoding settings : cabac=1 / ref=9 / deblock=1:-3:-3 / analyse=0x3:0x133 / me=umh / subme=11 / psy=1 / psy_rd=0.98:0.08 / mixed_ref=1 / me_range=64 / chroma_me=1 / trellis=2 / 8x8dct=1 / cqm=0 / deadzone=6,6 / fast_pskip=0 / chroma_qp_offset=-3 / threads=6 / lookahead_threads=1 / sliced_threads=0 / nr=0 / decimate=1 / interlaced=0 / bluray_compat=0 / constrained_intra=0 / bframes=6 / b_pyramid=2 / b_adapt=2 / b_bias=0 / direct=3 / weightb=1 / open_gop=1 / weightp=2 / keyint=240 / keyint_min=23 / scenecut=40 / intra_refresh=0 / rc_lookahead=240 / rc=2pass / mbtree=1 / bitrate=5229 / ratetol=1.0 / qcomp=0.75 / qpmin=0 / qpmax=69 / qpstep=4 / cplxblur=20.0 / qblur=0.5 / vbv_maxrate=50000 / vbv_bufsize=50000 / nal_hrd=none / ip_ratio=1.40 / aq=2:0.90
Language : English
Default : Yes
Forced : No
Color primaries : BT.709-5, BT.1361, IEC 61966-2-4, SMPTE RP177
Transfer characteristics : BT.709-5, BT.1361
Matrix coefficients : BT.709-5, BT.1361, IEC 61966-2-4 709, SMPTE RP177

Audio #1
ID : 2
Format : DTS
Format/Info : Digital Theater Systems
Codec ID : A_DTS
Duration : 1h 49mn
Bit rate mode : Constant
Bit rate : 1 510 Kbps
Channel(s) : 6 channels
Channel positions : Front: L C R, Side: L R, LFE
Sampling rate : 48.0 KHz
Bit depth : 24 bits
Compression mode : Lossy
Stream size : 1.15 GiB (18%)
Language : French
Default : Yes
Forced : No

Audio #2
ID : 3
Format : DTS
Format/Info : Digital Theater Systems
Codec ID : A_DTS
Duration : 1h 49mn
Bit rate mode : Constant
Bit rate : 1 510 Kbps
Channel(s) : 6 channels
Channel positions : Front: L C R, Side: L R, LFE
Sampling rate : 48.0 KHz
Bit depth : 16 bits
Compression mode : Lossy
Stream size : 1.15 GiB (18%)
Language : English
Default : No
Forced : No

Text
ID : 4
Format : UTF-8
Codec ID : S_TEXT/UTF8
Codec ID/Info : UTF-8 Plain Text
Title : FR Complets
Language : French
Default : No
Forced : No