Telecharger The Last Tycoon [BLURAY 720p] French

Qualité BLURAY 720p | FRENCH | son DTS

The Last Tycoon

The Last Tycoon

Origine du film : Chinois, Hong-kongais
Réalisateur : Jing Wong
Acteurs : Chow Yun-Fat, Huang Xiaoming, Sammo Hung Kam-Bo
Genre : Aventure, Action, Documentaire
Durée : 1h47min
Année de production : 2012
Titre Original : Da Shang Hai
Note spectateurs : The Last Tycoon

; »>2,8/5 (5)
Bande annonce :

d061905b9ae7a0e940c4aab7efe0d2cb

19553818″>Cliquez-ici pour voir la bande annonce d061905b9ae7a0e940c4aab7efe0d2cb »> 19553818

d061905b9ae7a0e940c4aab7efe0d2cb

The Last Tycoon

1920. Shanghaï. La ville sans foi ni loi est en plein essor et le crime organisé s’installe sous l’égide de la suprématie des gangs. Cheng, jeune homme ambitieux et déterminé, devra survivre dans les méandres troubles et sanglants de la ville. Il gravira un à un les échelons de la mafia jusqu’à en devenir son chef suprême et incontesté. Mais pour préserver son empire menacé, il lui faudra déjouer les pièges des services secrets et improviser face à l’invasion imminente de l’armée japonaise.
90238″ style= »display:inline; »>

The Last Tycoon

Format : MKV
Découpé avec : Winrar

The Last Tycoon

The.Last.Tycoon.2012.STV.FRENCH.720p.BluRay.x264-DEAL

(5593 Mo)

[Liens Interchangeables entre hébergeurs: 5x 1000 Mo + 1x 593 Mo]

Uptobox
Télécharger

Uplea
Télécharger

1fichier
Télécharger

Uploaded
Télécharger

Rapidgator
Télécharger

TurboBit
Télécharger

[ 1 lien Premium – 5,5 Go ]

Uptobox
Télécharger

Uplea
Télécharger

1fichier
Télécharger

TurboBit
Télécharger

NFO :

Afficher / Masquer le texte 0bce0d9d9160160562a7e655c6af2688″ class= »text_spoiler » style= »display:none; »>General
Unique ID : 247171091879603948798593610107253946785 (0xB9F36BB48DC37A9AA941D13D1F2BF9A1)
Complete name : the.last.tycoon.2012.stv.french.720p.bluray.x264-deal.mkv
Format : Matroska
Format version : Version 4 / Version 2
File size : 5.46 GiB
Duration : 1h 53mn
Overall bit rate : 6 860 Kbps
Encoded date : UTC 2015-07-02 07:33:14
Writing application : mkvmerge v8.1.0 (‘Psychedelic Postcard’) 64bit
Writing library : libebml v1.3.1 + libmatroska v1.4.2
DURATION : 01:53:59.563000000
NUMBER_OF_FRAMES : 641209
NUMBER_OF_BYTES : 1290112508
_STATISTICS_WRITING_APP : mkvmerge v8.1.0 (‘Psychedelic Postcard’) 64bit
_STATISTICS_WRITING_DATE_UTC : 2015-07-02 07:33:14
_STATISTICS_TAGS : BPS DURATION NUMBER_OF_FRAMES NUMBER_OF_BYTES

Video
ID : 1
Format : AVC
Format/Info : Advanced Video Codec
Format profile : [email protected]
Format settings, CABAC : Yes
Format settings, ReFrames : 5 frames
Codec ID : V_MPEG4/ISO/AVC
Duration : 1h 53mn
Bit rate : 5 352 Kbps
Width : 1 280 pixels
Height : 536 pixels
Display aspect ratio : 2.40:1
Frame rate mode : Constant
Frame rate : 25.000 fps
Color space : YUV
Chroma subsampling : 4:2:0
Bit depth : 8 bits
Scan type : Progressive
Bits/(Pixel*Frame) : 0.312
Stream size : 4.15 GiB (76%)
Title : DEAL – The Last Tycoon – 720p
Writing library : x264 core 146 r2538 121396c
Encoding settings : cabac=1 / ref=5 / deblock=1:0:0 / analyse=0x3:0x133 / me=umh / subme=7 / psy=1 / psy_rd=1.00:0.00 / mixed_ref=1 / me_range=16 / chroma_me=1 / trellis=1 / 8x8dct=1 / cqm=0 / deadzone=21,11 / fast_pskip=0 / chroma_qp_offset=-2 / threads=16 / lookahead_threads=2 / sliced_threads=0 / nr=0 / decimate=1 / interlaced=0 / bluray_compat=0 / constrained_intra=0 / bframes=3 / b_pyramid=2 / b_adapt=1 / b_bias=0 / direct=1 / weightb=1 / open_gop=0 / weightp=2 / keyint=250 / keyint_min=25 / scenecut=40 / intra_refresh=0 / rc_lookahead=40 / rc=2pass / mbtree=1 / bitrate=5352 / ratetol=1.0 / qcomp=0.60 / qpmin=0 / qpmax=69 / qpstep=4 / cplxblur=20.0 / qblur=0.5 / ip_ratio=1.40 / aq=1:1.00
Language : English
Default : Yes
Forced : No

Audio
ID : 2
Format : DTS
Format/Info : Digital Theater Systems
Mode : 16
Format settings, Endianness : Big
Codec ID : A_DTS
Duration : 1h 53mn
Bit rate mode : Constant
Bit rate : 1 509 Kbps
Channel(s) : 6 channels
Channel positions : Front: L C R, Side: L R, LFE
Sampling rate : 48.0 KHz
Bit depth : 24 bits
Compression mode : Lossy
Stream size : 1.20 GiB (22%)
Title : French DTS
Language : French
Default : Yes
Forced : No

Jeux Gratuit
15354131_1854970838071206_1069261547_o.png