Telecharger The Mist [BLURAY 720p] French

BLURAY 720p | FRENCH

Origine du film : Américain
Réalisateur : Frank Darabont
Acteurs : Thomas Jane, Marcia Gay Harden, Laurie Holden
Genre : Epouvante-horreur
Durée : 2h00min
Date de sortie : 27 février 2008
Année de production : 2007
Distribué par : TFM Distribution
Note presse : 3,5/5
Note spectateurs :

; »>3,5/5 (4 958)
Bande annonce :

6ef715fab3fd3d06425284e4bd413570

18794030″>Cliquez-ici pour voir la bande annonce 6ef715fab3fd3d06425284e4bd413570″> 18794030

6ef715fab3fd3d06425284e4bd413570

Tandis qu'une brume étrange semble envelopper une petite ville du Maine, David Drayton et son jeune fils Billy se retrouvent pris au piège dans un supermarché, en compagnie d'autres habitants terrorisés. David ne tarde pas à s'apercevoir que le brouillard est peuplé d'inquiétantes créatures…Leur seule chance à tous de s'en sortir consiste à s'unir. Mais est-ce possible quand on connaît la nature humaine ? Alors que certains cèdent à la panique, David se demande ce qui est le plus effrayant : les monstres qui rôdent dans la brume ou ses semblables réfugiés dans le supermarché ? 38503″ style= »display:inline; »>

Qualité : BLURAY 720p
Format : MKV
Langue : Français
Sous-titre : Français
Découpé avec : Winrar
Nombre de fichiers : 5 Fichiers
Taille des fichiers : 1000 Mo 350 Mo

[Liens Interchangeables]

The.Mist.FRENCH.720p.BluRay.x264-ForceBleue ( 4350 Mo)

Uptobox
Télécharger

Uplea
Télécharger

1fichier
Télécharger

Uploaded
Télécharger

Rapidgator
Télécharger

TurboBit
Télécharger

[ 1 lien Premium – 4,4 Go ]

Uptobox
Télécharger

Uplea
Télécharger

1fichier
Télécharger

Uploaded
Télécharger

TurboBit
Télécharger

NFO :

Afficher / Masquer le texte cc5a553fa1a57e94150ec37f24dd3cbe » class= »text_spoiler » style= »display:none; »>General
Unique ID : 245833565103915882976702325753919394313 (0xB8F1D28B39AFBFA3B8F403E592795209)
Complete name : /home/kamikaz974/rtorrent/downloads/Movies/The.Mist.FRENCH.720p.BluRay.x264-ForceBleue/fb-themistretail.mkv
Format : Matroska
Format version : Version 1
File size : 4.37 GiB
Duration : 2h 5mn
Overall bit rate : 4 968 Kbps
Encoded date : UTC 2008-08-29 21:53:38
Writing application : mkvmerge v2.2.0 ('Turn It On Again') built on Mar 4 2008 12:58:26
Writing library : libebml v0.7.7 libmatroska v0.8.1

Video
ID : 1
Format : AVC
Format/Info : Advanced Video Codec
Format profile : [email protected]
Format settings, CABAC : Yes
Format settings, ReFrames : 5 frames
Codec ID : V_MPEG4/ISO/AVC
Duration : 2h 5mn
Bit rate : 4 325 Kbps
Width : 1 280 pixels
Height : 688 pixels
Display aspect ratio : 1.85:1
Frame rate mode : Constant
Frame rate : 23.976 fps
Color space : YUV
Chroma subsampling : 4:2:0
Bit depth : 8 bits
Scan type : Progressive
Bits/(Pixel*Frame) : 0.205
Stream size : 3.72 GiB (85%)
Writing library : x264 core 60 r951 445d87e
Encoding settings : cabac=1 / ref=5 / deblock=1:0:0 / analyse=0x3:0x133 / me=umh / subme=6 / brdo=1 / mixed_ref=1 / me_range=16 / chroma_me=1 / trellis=1 / 8x8dct=1 / cqm=0 / deadzone=21,11 / chroma_qp_offset=0 / threads=6 / nr=0 / decimate=1 / mbaff=0 / bframes=3 / b_pyramid=1 / b_adapt=1 / b_bias=0 / direct=1 / wpredb=1 / bime=1 / keyint=250 / keyint_min=25 / scenecut=40(pre) / rc=2pass / bitrate=4325 / ratetol=1.0 / rceq='blurCplx^(1-qComp)' / qcomp=1.00 / qpmin=10 / qpmax=51 / qpstep=4 / cplxblur=20.0 / qblur=0.5 / ip_ratio=1.40 / pb_ratio=1.30 / aq=2:1.00
Language : English
Default : Yes
Forced : No

Audio
ID : 2
Format : AC-3
Format/Info : Audio Coding 3
Mode extension : CM (complete main)
Format settings, Endianness : Big
Codec ID : A_AC3
Duration : 2h 5mn
Bit rate mode : Constant
Bit rate : 640 Kbps
Channel(s) : 6 channels
Channel positions : Front: L C R, Side: L R, LFE
Sampling rate : 48.0 KHz
Bit depth : 16 bits
Compression mode : Lossy
Stream size : 577 MiB (13%)
Title : AC3 5.1
Language : French
Default : Yes
Forced : No