Télécharger The Rocky Horror Picture Show[BLURAY 1080p] VOSTFR

Qualité 1080p HDLight | VOSTFR

Origine du film : Américain
Réalisateur : Jim Sharman
Acteurs : Tim Curry, Susan Sarandon, Barry Bostwick
Genre : Comédie musicale, Musical, Comédie
Durée : 1h 40min
Date de sortie : 14 avril 1976
Année de production : 1975
Distribué par : Twentieth Century Fox France
Note spectateurs :
3,9/5 (3277)

Une nuit d’orage, la voiture de Janet et Brad, un couple coincé qui vient de se fiancer, tombe en panne. Obligés de se réfugier dans un mystérieux château, ils vont faire la rencontre de ses occupants pour le moins bizarres, qui se livrent à de bien étranges expériences.
news-id-134545″ style= »display:inline; »>

Format : x264
Découpé avec : Winrar

The.Rocky.Horror.Picture.Show.1975.1080p.VoStFr.mHDgz

(4111 Mo)

[Liens Interchangeables entre hébergeurs: 4x 1000 Mo + 1x 111 Mo]

Uptobox
Télécharger

Uplea
Télécharger

1fichier
Télécharger

Uploaded
Télécharger

Rapidgator
Télécharger

TurboBit
Télécharger

[Liens PREMIUM]

Uptobox
Télécharger

Uplea
Télécharger

1fichier
Télécharger

Uploaded
Télécharger

Rapidgator
Télécharger

TurboBit
Télécharger

NFO :

683dccd3d99ede922e1014db70bfcafe » class= »text_spoiler » style= »display:none; »>

General
Format : Matroska
Format version : Version 2
File size : 4.02 GiB
Duration : 1h 40mn
Overall bit rate : 5 740 Kbps
Writing application : HandBrake 0.9.9
Writing library : libmkv 0.6.5

Video
ID : 1
Format : AVC
Format/Info : Advanced Video Codec
Format profile : [email protected]
Format settings, CABAC : Yes
Format settings, ReFrames : 4 frames
Codec ID : V_MPEG4/ISO/AVC
Duration : 1h 40mn
Bit rate : 5 306 Kbps
Width : 1 792 pixels
Height : 1 072 pixels
Display aspect ratio : 1.659
Frame rate mode : Constant
Frame rate : 23.976 fps
Color space : YUV
Chroma subsampling : 4:2:0
Bit depth : 8 bits
Scan type : Progressive
Bits/(Pixel*Frame) : 0.115
Stream size : 3.71 GiB (92%)
Writing library : x264 core 130 r2273 b3065e6
Encoding settings : cabac=1 / ref=3 / deblock=1:-1:-1 / analyse=0x3:0x113 / me=hex / subme=7 / psy=1 / psy_rd=1.00:0.15 / mixed_ref=1 / me_range=16 / chroma_me=1 / trellis=1 / 8x8dct=1 / cqm=0 / deadzone=21,11 / fast_pskip=1 / chroma_qp_offset=-3 / threads=18 / lookahead_threads=3 / sliced_threads=0 / nr=0 / decimate=1 / interlaced=0 / bluray_compat=0 / constrained_intra=0 / bframes=3 / b_pyramid=2 / b_adapt=1 / b_bias=0 / direct=1 / weightb=1 / open_gop=0 / weightp=2 / keyint=240 / keyint_min=24 / scenecut=40 / intra_refresh=0 / rc_lookahead=40 / rc=crf / mbtree=1 / crf=24.0 / qcomp=0.60 / qpmin=0 / qpmax=69 / qpstep=4 / vbv_maxrate=300000 / vbv_bufsize=300000 / crf_max=0.0 / nal_hrd=none / ip_ratio=1.40 / aq=1:1.00
Language : English
Default : Yes
Forced : No
Color primaries : BT.709
Transfer characteristics : BT.709
Matrix coefficients : BT.709

Audio
ID : 2
Format : AC-3
Format/Info : Audio Coding 3
Mode extension : CM (complete main)
Format settings, Endianness : Big
Codec ID : A_AC3
Duration : 1h 40mn
Bit rate mode : Constant
Bit rate : 320 Kbps
Channel(s) : 6 channels
Channel positions : Front: L C R, Side: L R, LFE
Sampling rate : 48.0 KHz
Bit depth : 16 bits
Compression mode : Lossy
Stream size : 229 MiB (6%)
Language : English
Default : Yes
Forced : No

Text
ID : 3
Format : UTF-8
Codec ID : S_TEXT/UTF8
Codec ID/Info : UTF-8 Plain Text
Language : French
Default : No
Forced : No

Menu
00:00:00.000 : Chapter 1
00:04:47.829 : Chapter 2
00:07:31.952 : Chapter 3
00:10:20.620 : Chapter 4
00:13:55.209 : Chapter 5
00:16:59.060 : Chapter 6
00:19:28.876 : Chapter 7
00:23:53.515 : Chapter 8
00:28:58.111 : Chapter 9
00:33:39.351 : Chapter 10
00:36:33.108 : Chapter 11
00:38:36.272 : Chapter 12
00:39:45.133 : Chapter 13
00:41:57.098 : Chapter 14
00:45:16.172 : Chapter 15
00:45:57.421 : Chapter 16
00:47:29.555 : Chapter 17
00:48:06.509 : Chapter 18
00:49:21.917 : Chapter 19
00:50:51.382 : Chapter 20
00:52:32.191 : Chapter 21
00:54:16.044 : Chapter 22
00:56:41.982 : Chapter 23
00:59:10.172 : Chapter 24
01:03:34.894 : Chapter 25
01:06:58.223 : Chapter 26
01:09:55.817 : Chapter 27
01:12:16.958 : Chapter 28
01:16:34.256 : Chapter 29
01:19:21.048 : Chapter 30
01:23:21.580 : Chapter 31
01:25:11.648 : Chapter 32
01:28:43.109 : Chapter 33
01:31:51.840 : Chapter 34
01:34:33.376 : Chapter 35
01:37:04.152 : Chapter 36