Telecharger The Rover [BLURAY 720p] French

(TRUEFRENCH = Vraie voix française)

BLURAY 720p | TRUEFRENCH (VFI)

The Rover

The Rover

The Rover

Origine du film : Australien, Américain
Réalisateur : David Michôd
Acteurs : Guy Pearce, Robert Pattinson, Scoot McNairy
Genre : Drame
Durée : 1h42min
Date de sortie : 4 juin 2014
Année de production : 2014
Distribué par : Metropolitan FilmExport
Note presse : The Rover 3,6/5
Note spectateurs : The Rover

; »>3,1/5 (776)
Bande annonce :

e0448b8d35f5d4e6dd1211da4f147e02

19542160″>Cliquez-ici pour voir la bande annonce e0448b8d35f5d4e6dd1211da4f147e02″> 19542160

e0448b8d35f5d4e6dd1211da4f147e02

The Rover

Dix ans après l’effondrement de l’économie occidentale, les mines australiennes sont encore en activité, et cette industrie attire les hommes les plus désespérés et les plus dangereux. Là-bas, dans une société moribonde où survivre est un combat de chaque jour, plus aucune loi n’existe. Eric a tout laissé derrière lui. Ce n’est plus qu’un vagabond, un homme froid rempli de colère. Lorsqu’il se fait voler la seule chose qu’il possédait encore, sa voiture, par un gang, il se lance à leur poursuite. Son unique chance de les retrouver est Rey, un des membres de la bande, abandonné par les siens après avoir été blessé. Contraints et forcés, les deux hommes vont faire équipe pour un périple dont ils n’imaginent pas l’issue…
59297″ style= »display:inline; »>

The Rover

Qualité : BLURAY 720p
Format : MKV
Langue : Français
Découpé avec : Winrar
Nombre de fichiers : 4 Fichiers
Taille des fichiers : 1000 Mo + 6911 Mo

The Rover

[4 Liens Interchangeables : 3 x 1000 Mo + 1 x 691 Mo]

The Rover 2014 FRENCH 720p BluRay x264 AC3 CNF30 ( 3691 Mo)

Uptobox
Télécharger

Uplea
Télécharger

1fichier
Télécharger

Uploaded
Télécharger

Rapidgator
Télécharger

TurboBit
Télécharger

[1 Lien PREMIUM : 1 x 3.61 GB]

Uptobox
Télécharger

Uplea
Télécharger

1fichier
Télécharger

Uploaded
Télécharger

Rapidgator
Télécharger

TurboBit
Télécharger

NFO :

Afficher / Masquer le texte b3b8ffa4cd717ddcc4256b02f9c7ddfc » class= »text_spoiler » style= »display:none; »>
Format : Matroska
Format version : Version 4 / Version 2
File size : 3.61 GiB
Duration : 1h 42mn
Overall bit rate : 5 017 Kbps
Encoded date : UTC 2014-09-22 22:14:14
Writing application : mkvmerge v6.7.0 (‘Back to the Ground’) 64bit built on Jan 8 2014 15:10:52
Writing library : libebml v1.3.0 + libmatroska v1.4.1

Video
ID : 1
Format : AVC
Format/Info : Advanced Video Codec
Format profile : [email protected]
Format settings, CABAC : Yes
Format settings, ReFrames : 5 frames
Codec ID : V_MPEG4/ISO/AVC
Duration : 1h 42mn
Bit rate : 4 568 Kbps
Width : 1 280 pixels
Height : 536 pixels
Display aspect ratio : 2.40:1
Frame rate : 23.976 fps
Color space : YUV
Chroma subsampling : 4:2:0
Bit depth : 8 bits
Scan type : Progressive
Bits/(Pixel*Frame) : 0.278
Stream size : 3.21 GiB (89%)
Writing library : x264 core 142 r2453 ea0ca51
Encoding settings : cabac=1 / ref=5 / deblock=1:0:0 / analyse=0x3:0x133 / me=umh / subme=7 / psy=1 / psy_rd=1.00:0.00 / mixed_ref=1 / me_range=16 / chroma_me=1 / trellis=1 / 8x8dct=1 / cqm=0 / deadzone=21,11 / fast_pskip=0 / chroma_qp_offset=-2 / threads=18 / lookahead_threads=3 / sliced_threads=0 / nr=0 / decimate=1 / interlaced=0 / bluray_compat=0 / constrained_intra=0 / bframes=3 / b_pyramid=2 / b_adapt=1 / b_bias=0 / direct=1 / weightb=1 / open_gop=0 / weightp=2 / keyint=250 / keyint_min=23 / scenecut=40 / intra_refresh=0 / rc_lookahead=40 / rc=2pass / mbtree=1 / bitrate=4568 / ratetol=1.0 / qcomp=0.60 / qpmin=0 / qpmax=69 / qpstep=4 / cplxblur=20.0 / qblur=0.5 / ip_ratio=1.40 / aq=1:1.00
Language : English
Default : Yes
Forced : No

Audio
ID : 2
Format : AC-3
Format/Info : Audio Coding 3
Mode extension : CM (complete main)
Format settings, Endianness : Big
Codec ID : A_AC3
Duration : 1h 42mn
Bit rate mode : Constant
Bit rate : 448 Kbps
Channel(s) : 6 channels
Channel positions : Front: L C R, Side: L R, LFE
Sampling rate : 48.0 KHz
Bit depth : 16 bits
Compression mode : Lossy
Stream size : 330 MiB (9%)
Title : French VFI
Language : French
Default : Yes
Forced : No

Jeux Gratuit
15354131_1854970838071206_1069261547_o.png