Telecharger The Scorpion King 3: Battle for Redemption [BLURAY 720p] French

BLURAY 720p | FRENCH | DTS

The Scorpion King 3: Battle for Redemption

The Scorpion King 3: Battle for Redemption

The Scorpion King 3: Battle for Redemption

Origine du film : inconnue
Réalisateur : Roel Reiné
Acteurs : Victor Webster, Ron Perlman, Billy Zane
Genre : Action, Aventure, Fantastique
Date de sortie DVD : 6 Fevrier 2012
Date de sortie BluRay : 6 Fevrier 2012
Année de production : 2011

The Scorpion King 3: Battle for Redemption

Par la faute d'une peste virulente, Mathayus a perdu sa reine et son royaume. Il est maintenant à la solde du roi Horus qui l'envoie protéger son allié, le roi Ramusan, sous la menace d'une attaque. En l'échange de ses services, on lui promet la main de la princesse Silda, fille de Ramusan et un médaillon, l'oeil des Dieux, qui octroie des pouvoirs extraordinaires à son porteur. Mais avant de toucher ses récompenses, il va devoir accomplir une nouvelle tache : libérer la princesse, prisonnière de Talus, le frère intriguant d'Horus…

Nom de la release : The.Scorpion.King.3.Battle.for.Redemption.2012.FRENCH.720p.Bluray.x264.DTS-FMS 9940″ style= »display:inline; »>

The Scorpion King 3: Battle for Redemption

Qualité : BLURAY 720p
Format : MKV
Langue : Français
Découpé avec : Winrar
Nombre de fichiers : 4 Fichiers
Taille des fichiers : 1000 Mo 916 Mo
Taille totale : 3916 Mo

The Scorpion King 3: Battle for Redemption

[Liens Interchangeables]

1fichier
Télécharger

Uptobox
Télécharger

Uploaded
Télécharger

Rapidgator
Télécharger

TurboBit
Télécharger

NFO :

Afficher / Masquer le texte 1de3e12079c91d87bafd0f4d2621b44e » class= »text_spoiler » style= »display:none; »>General
Complete name : The.Scorpion.King.3.Battle.for.Redemption.2012.FRENCH.720p.Bluray.x264.DTS-FMS.mkv
Format : Matroska
File size : 3.82 GiB
Duration : 1h 45mn
Overall bit rate : 5 196 Kbps
Encoded date : UTC 2011-12-24 23:20:15
Writing application : mkvmerge v4.9.1 ('Ich will') built on Jul 11 2011 23:53:15
Writing library : libebml v1.2.1 libmatroska v1.1.1

Video
ID : 2
Format : AVC
Format/Info : Advanced Video Codec
Format profile : [email protected]
Format settings, CABAC : Yes
Format settings, ReFrames : 9 frames
Muxing mode : Header stripping
Codec ID : V_MPEG4/ISO/AVC
Duration : 1h 45mn
Bit rate : 4 439 Kbps
Width : 1 280 pixels
Height : 720 pixels
Display aspect ratio : 16:9
Frame rate : 23.976 fps
Color space : YUV
Chroma subsampling : 4:2:0
Bit depth : 8 bits
Scan type : Progressive
Bits/(Pixel*Frame) : 0.201
Stream size : 3.19 GiB (83%)
Title : FMS
Writing library : x264 core 120 r2120 0c7dab9
Language : English

Audio
ID : 1
Format : DTS
Format/Info : Digital Theater Systems
Muxing mode : Header stripping
Codec ID : A_DTS
Duration : 1h 45mn
Bit rate mode : Constant
Bit rate : 755 Kbps
Channel(s) : 6 channels
Channel positions : Front: L C R, Side: L R, LFE
Sampling rate : 48.0 KHz
Bit depth : 24 bits
Stream size : 569 MiB (15%)
Title : DTS
Language : French
———————————–FMS—————————————–