Telecharger The Signal [BLURAY 720p] French

(TRUEFRENCH = Vraie voix française)

BLURAY 720p | TRUEFRENCH (VFi)

The Signal

The Signal

The Signal

Origine du film : Américain
Réalisateur : William Eubank
Acteurs : Brenton Thwaites, Beau Knapp, Olivia Cooke
Genre : Thriller, Science fiction
Durée : 1h37min
Année de production : 2014
Bande annonce :

60d500b0c36780949757426672a8f17e

19543937″>Cliquez-ici pour voir la bande annonce 60d500b0c36780949757426672a8f17e »> 19543937

60d500b0c36780949757426672a8f17e

The Signal

Nick et Jonas sont étudiants en première année à MIT (Massachusetts Institute of Technology). Passionnés de piratage, ils ont déjà déjoué le système de sécurité de MIT. Quand ils décident de faire un road trip à travers le Sud-Ouest des Etats-Unis avec la petite amie de Nick, Hailey, leur trajet se trouve être détourné par un génie de l'informatique qui attire leur attention. Le trio se retrouve alors entraîné dans une zone étrangement isolée. Soudain, tout devient noir. Nic est devenu un captif, ils découvrent alors qu'ils font partie d'un complot hors normes. 
59247″ style= »display:inline; »>

The Signal

Qualité : BLURAY 720p
Format : MKV
Langue : Français
Sous-titre : Français
Nombre de fichiers : 5 Fichiers
Taille des fichiers : 1000 Mo + 177 Mo

The Signal

[Liens Interchangeables]

The.Signal.2014.FRENCH.720p.BluRay.x264.AC3-CNF30 ( 4177 Mo)

Uptobox
Télécharger

Uplea
Télécharger

1fichier
Télécharger

Uploaded
Télécharger

Rapidgator
Télécharger

TurboBit
Télécharger

1 Lien Premium – 4.1 Go

Uptobox
Télécharger

Uplea
Télécharger

1fichier
Télécharger

Uploaded
Télécharger

TurboBit
Télécharger

NFO :

Afficher / Masquer le texte 54461367a057777588b21b0c156ec198″ class= »text_spoiler » style= »display:none; »>Format : Matroska
Format version : Version 4 / Version 2
File size : 4.08 GiB
Duration : 1h 37mn
Overall bit rate : 6 009 Kbps
Encoded date : UTC 2014-09-22 00:43:37
Writing application : mkvmerge v6.7.0 (‘Back to the Ground’) 64bit built on Jan 8 2014 15:10:52
Writing library : libebml v1.3.0 + libmatroska v1.4.1

Video
ID : 1
Format : AVC
Format/Info : Advanced Video Codec
Format profile : [email protected]
Format settings, CABAC : Yes
Format settings, ReFrames : 12 frames
Codec ID : V_MPEG4/ISO/AVC
Duration : 1h 37mn
Bit rate : 5 505 Kbps
Width : 1 280 pixels
Height : 534 pixels
Display aspect ratio : 2.40:1
Frame rate : 23.976 fps
Color space : YUV
Chroma subsampling : 4:2:0
Bit depth : 8 bits
Scan type : Progressive
Bits/(Pixel*Frame) : 0.336
Stream size : 3.74 GiB (92%)
Title : The.Signal.2014.720p.BluRay.DTS.x264-DON
Writing library : x264 core 140 r2377 1ca7bb9
Encoding settings : cabac=1 / ref=12 / deblock=1:-3:-3 / analyse=0x3:0x133 / me=umh / subme=10 / psy=1 / psy_rd=1.07:0.00 / mixed_ref=1 / me_range=48 / chroma_me=1 / trellis=2 / 8x8dct=1 / cqm=0 / deadzone=21,11 / fast_pskip=0 / chroma_qp_offset=-2 / threads=12 / lookahead_threads=2 / sliced_threads=0 / nr=0 / decimate=0 / interlaced=0 / bluray_compat=0 / constrained_intra=0 / bframes=8 / b_pyramid=2 / b_adapt=2 / b_bias=0 / direct=3 / weightb=1 / open_gop=0 / weightp=2 / keyint=240 / keyint_min=23 / scenecut=40 / intra_refresh=0 / rc_lookahead=60 / rc=crf / mbtree=0 / crf=16.0 / qcomp=0.65 / qpmin=0 / qpmax=69 / qpstep=4 / vbv_maxrate=62500 / vbv_bufsize=78125 / crf_max=0.0 / nal_hrd=none / filler=0 / ip_ratio=1.30 / pb_ratio=1.15 / aq=1:0.72
Language : English
Default : Yes
Forced : No

Audio
ID : 2
Format : AC-3
Format/Info : Audio Coding 3
Mode extension : CM (complete main)
Format settings, Endianness : Big
Codec ID : A_AC3
Duration : 1h 37mn
Bit rate mode : Constant
Bit rate : 384 Kbps
Channel(s) : 6 channels
Channel positions : Front: L C R, Side: L R, LFE
Sampling rate : 48.0 KHz
Bit depth : 16 bits
Compression mode : Lossy
Stream size : 267 MiB (6%)
Title : French VFI
Language : French
Default : Yes
Forced : No

Jeux Gratuit
15354131_1854970838071206_1069261547_o.png