Telecharger The Spirit [BLURAY 720p] French

(TRUEFRENCH = Vraie voix française)

(AC3 = Dolby Digital 5.1)

BLURAY 720p | MULTiLANGUES (Avec TRUEFRENCH)

The Spirit

The Spirit

The Spirit

Origine du film : Américain
Réalisateur : Frank Miller
Acteurs : Gabriel Macht, Samuel L. Jackson, Scarlett Johansson
Genre : Action, Thriller
Durée : 1h 43min
Date de sortie : 31 décembre 2008
Année de production : 2008
Distribué par : Sony Pictures Releasing France
Note presse : The Spirit 2,6/5
Note spectateurs : The Spirit

; »>2,1/5 (3 379)
Bande annonce :

1a517a450ecdce85e615f9672e88e4f2

18824285″>Cliquez-ici pour voir la bande annonce 1a517a450ecdce85e615f9672e88e4f2″> 18824285

1a517a450ecdce85e615f9672e88e4f2

The Spirit

Denny Colt, un ancien flic, revient mystérieusement d'entre les morts. Il est désormais le Spirit, combattant du crime dans les rues obscures de Central City. Son ennemi juré, Octopus, a un but bien différent : dans sa folle quête d'immortalité, il s'apprête à détruire la ville. Aux quatre coins de la cité, le Spirit traque le tueur. Sur son chemin, le héros masqué croise des femmes, toutes sublimes, qui cherchent à le séduire, l'aimer ou le tuer… Seul son amour de toujours ne le trahira pas : Central City, la ville qui l'a vu naître… deux fois.

Nom de la release : The Spirit 2008 MULTi TRUEFRENCH 720p BluRay AC3 x264-RiV3R 26095″ style= »display:inline; »>

Qualité : BLURAY 720p
Format : MKV
Sous-titre : Multi
Découpé avec : Winrar
Nombre de fichiers : 3 Fichiers
Taille des fichiers : 1000 Mo 514 Mo
Taille totale : 2516 Mo

[3 Liens Interchangeables : 2 x 1000 Mo 1 x 516 Mo]

1fichier
Télécharger

Uptobox
Télécharger

Free
Télécharger

Uploaded
Télécharger

Rapidgator
Télécharger

TurboBit
Télécharger

[1 Lien PREMIUM : 1 x 2.45 GB]

1fichier
Télécharger

Uptobox
Télécharger

Uploaded
Télécharger

TurboBit
Télécharger

NFO :

Afficher / Masquer le texte 710b15370f5abc3d3968248bd53c8b57″ class= »text_spoiler » style= »display:none; »>Format : Matroska
File size : 2.46 GiB
Duration : 1h 42mn
Overall bit rate : 3 428 Kbps
Encoded date : UTC 2013-05-13 16:58:39
Writing application : mkvmerge v6.1.0 ('Old Devil') built on Mar 2 2013 14:32:37
Writing library : libebml v1.3.0 libmatroska v1.4.0

Video
ID : 1
Format : AVC
Format/Info : Advanced Video Codec
Format profile : [email protected]
Format settings, CABAC : Yes
Format settings, ReFrames : 12 frames
Codec ID : V_MPEG4/ISO/AVC
Duration : 1h 42mn
Bit rate : 2 080 Kbps
Width : 1 280 pixels
Height : 532 pixels
Display aspect ratio : 2.40:1
Frame rate mode : Variable
Frame rate : 23.976 fps
Color space : YUV
Chroma subsampling : 4:2:0
Bit depth : 8 bits
Scan type : Progressive
Bits/(Pixel*Frame) : 0.127
Stream size : 1.49 GiB (61%)
Writing library : x264 core 130
Encoding settings : cabac=1 / ref=12 / deblock=1:-3:-3 / analyse=0x3:0x133 / me=umh / subme=11 / psy=1 / psy_rd=1.00:0.00 / mixed_ref=1 / me_range=64 / chroma_me=1 / trellis=2 / 8x8dct=1 / cqm=0 / deadzone=6,6 / fast_pskip=0 / chroma_qp_offset=-2 / threads=6 / lookahead_threads=1 / sliced_threads=0 / nr=0 / decimate=1 / interlaced=0 / bluray_compat=0 / constrained_intra=0 / bframes=16 / b_pyramid=2 / b_adapt=2 / b_bias=0 / direct=3 / weightb=1 / open_gop=0 / weightp=2 / keyint=240 / keyint_min=24 / scenecut=40 / intra_refresh=0 / rc_lookahead=240 / rc=crf / mbtree=1 / crf=18.8 / qcomp=0.60 / qpmin=0 / qpmax=69 / qpstep=4 / vbv_maxrate=50000 / vbv_bufsize=50000 / crf_max=0.0 / nal_hrd=none / ip_ratio=1.40 / aq=2:1.05
Language : English
Color primaries : BT.709-5, BT.1361, IEC 61966-2-4, SMPTE RP177
Transfer characteristics : BT.709-5, BT.1361
Matrix coefficients : BT.709-5, BT.1361, IEC 61966-2-4 709, SMPTE RP177

Audio #1
ID : 2
Format : AC-3
Format/Info : Audio Coding 3
Mode extension : CM (complete main)
Codec ID : A_AC3
Duration : 1h 42mn
Bit rate mode : Constant
Bit rate : 640 Kbps
Channel(s) : 6 channels
Channel positions : Front: L C R, Side: L R, LFE
Sampling rate : 48.0 KHz
Bit depth : 16 bits
Compression mode : Lossy
Stream size : 470 MiB (19%)
Language : French

Audio #2
ID : 3
Format : AC-3
Format/Info : Audio Coding 3
Mode extension : CM (complete main)
Codec ID : A_AC3
Duration : 1h 42mn
Bit rate mode : Constant
Bit rate : 640 Kbps
Channel(s) : 6 channels
Channel positions : Front: L C R, Side: L R, LFE
Sampling rate : 48.0 KHz
Bit depth : 16 bits
Compression mode : Lossy
Stream size : 470 MiB (19%)
Language : English

Text #1
ID : 4
Format : UTF-8
Codec ID : S_TEXT/UTF8
Codec ID/Info : UTF-8 Plain Text
Title : FR Complets
Language : French

Text #2
ID : 5
Format : UTF-8
Codec ID : S_TEXT/UTF8
Codec ID/Info : UTF-8 Plain Text
Title : ENG Full
Language : English