Telecharger The Terror Live [BLURAY 720p] French

(TRUEFRENCH = Vraie voix française)

Qualité BLURAY 720p | TRUEFRENCH | son DTS

The Terror Live

The Terror Live

The Terror Live

Origine du film : Sud-Coréen
Réalisateur : Byeong-woo Kim
Acteurs : Jin-ho Choi, Jung-woo Ha, Jeon Hye-Jin
Genre : Action, Thriller
Durée : 1h33min
Année de production : 2013
Titre Original : Deu tae-ro ra-i-beu
Note spectateurs : The Terror Live

; »>3,1/5 (3)
Bande annonce :

9dc317563abda7eccc3bae85b0ab08a0

19553830″>Cliquez-ici pour voir la bande annonce 9dc317563abda7eccc3bae85b0ab08a0″> 19553830

9dc317563abda7eccc3bae85b0ab08a0

The Terror Live

Un animateur radio reçoit lors de son émission, l’appel d’un mystérieux auditeur menaçant de faire exploser un célèbre pont de la ville, avant de passer à l’acte. Le journaliste décide alors de se servir de cette opportunité pour reprendre son ancien poste à la télévision et couvrir l’événément en direct tout en essayant de trouver une solution pour stopper les actes criminels du terroriste…
98911″ style= »display:inline; »>

The Terror Live

Format : MKV

The Terror Live

The.Terror.Live.2013.FRENCH.720p.BluRay.x264-JUSTFORFUN

(7664 Mo)

[Liens Interchangeables entre hébergeurs: 7x 1000 Mo + 1x 664 Mo]

Uptobox
Télécharger

Uplea
Télécharger

1fichier
Télécharger

Uploaded
Télécharger

Rapidgator
Télécharger

TurboBit
Télécharger

1 Lien Premium – 7.6 Go

Uptobox Premium
Télécharger

Uplea Premium
Télécharger

1fichier Premium
Télécharger

Uploaded Premium
Télécharger

TurboBit Premium
Télécharger

NFO :

Afficher / Masquer le texte 041fd44de4a59eac234bbf4764f5f242″ class= »text_spoiler » style= »display:none; »>General
Unique ID : 247180585059958260205550406033891501493 (0xB9F53FC155D808DB9178D1407FE9A5B5)
Complete name : The Terror Live 2013 FRENCH 720p BluRay x264-JUSTFORFUN.mkv
Format : Matroska
Format version : Version 4 / Version 2
File size : 7.48 GiB
Duration : 1h 38mn
Overall bit rate : 10.9 Mbps
Encoded date : UTC 2015-09-28 09:28:00
Writing application : mkvmerge v7.8.0 (‘River Man’) 64bit built on Mar 27 2015 16:31:37
Writing library : libebml v1.3.1 + libmatroska v1.4.2
DURATION : 01:10:31.894000000
NUMBER_OF_FRAMES : 7
NUMBER_OF_BYTES : 201
_STATISTICS_WRITING_APP : mkvmerge v7.8.0 (‘River Man’) 64bit built on Mar 27 2015 16:31:37
_STATISTICS_WRITING_DATE_UT : 2015-09-28 09:28:00
_STATISTICS_TAGS : BPS DURATION NUMBER_OF_FRAMES NUMBER_OF_BYTES

Video
ID : 1
Format : AVC
Format/Info : Advanced Video Codec
Format profile : [email protected]
Format settings, CABAC : Yes
Format settings, ReFrames : 9 frames
Codec ID : V_MPEG4/ISO/AVC
Duration : 1h 38mn
Bit rate : 9 600 Kbps
Width : 1 280 pixels
Height : 694 pixels
Display aspect ratio : 1.85:1
Frame rate mode : Constant
Frame rate : 23.976 fps
Color space : YUV
Chroma subsampling : 4:2:0
Bit depth : 8 bits
Scan type : Progressive
Bits/(Pixel*Frame) : 0.451
Stream size : 6.42 GiB (86%)
Title : The.Terror.Live.2013
Writing library : x264 core 133 r2334 a3ac64b
Encoding settings : cabac=1 / ref=9 / deblock=1:-3:-3 / analyse=0x3:0x113 / me=umh / subme=9 / psy=1 / psy_rd=1.05:0.00 / mixed_ref=1 / me_range=16 / chroma_me=1 / trellis=2 / 8x8dct=1 / cqm=0 / deadzone=21,11 / fast_pskip=0 / chroma_qp_offset=-2 / threads=3 / lookahead_threads=1 / sliced_threads=0 / nr=0 / decimate=0 / interlaced=0 / bluray_compat=0 / constrained_intra=0 / bframes=10 / b_pyramid=2 / b_adapt=2 / b_bias=0 / direct=3 / weightb=1 / open_gop=0 / weightp=2 / keyint=250 / keyint_min=23 / scenecut=40 / intra_refresh=0 / rc=2pass / mbtree=0 / bitrate=9600 / ratetol=1.0 / qcomp=0.60 / qpmin=0 / qpmax=69 / qpstep=4 / cplxblur=20.0 / qblur=0.5 / ip_ratio=1.40 / pb_ratio=1.30 / aq=1:0.60
Language : Korean
Default : Yes
Forced : No
DURATION : 01:38:01.167000000
NUMBER_OF_FRAMES : 141007
NUMBER_OF_BYTES : 7047003890
_STATISTICS_WRITING_APP : mkvmerge v7.8.0 (‘River Man’) 64bit built on Mar 27 2015 16:31:37
_STATISTICS_WRITING_DATE_UT : 2015-09-28 09:28:00
_STATISTICS_TAGS : BPS DURATION NUMBER_OF_FRAMES NUMBER_OF_BYTES

Audio
ID : 2
Format : DTS
Format/Info : Digital Theater Systems
Mode : 16
Format settings, Endianness : Big
Codec ID : A_DTS
Duration : 1h 38mn
Bit rate mode : Constant
Bit rate : 1 344 Kbps
Channel(s) : 6 channels
Channel positions : Front: L C R, Side: L R, LFE
Sampling rate : 48.0 KHz
Bit depth : 24 bits
Compression mode : Lossy
Stream size : 942 MiB (12%)
Title : FRENCH
Language : French
Default : Yes
Forced : No

Text
ID : 3
Format : UTF-8
Codec ID : S_TEXT/UTF8
Codec ID/Info : UTF-8 Plain Text
Default : Yes
Forced : No

Menu
00:00:00.000 : en:00:00:00.000
00:05:43.843 : en:00:05:43.843
00:11:50.126 : en:00:11:50.126
00:16:27.320 : en:00:16:27.320
00:23:31.910 : en:00:23:31.910
00:27:05.332 : en:00:27:05.332
00:36:23.181 : en:00:36:23.181
00:40:24.505 : en:00:40:24.505
00:48:43.671 : en:00:48:43.671
00:54:47.618 : en:00:54:47.618
00:59:14.092 : en:00:59:14.092
01:04:47.509 : en:01:04:47.509
01:13:06.549 : en:01:13:06.549
01:18:57.775 : en:01:18:57.775
01:28:23.673 : en:01:28:23.673
01:35:17.003 : en:01:35:17.003

Jeux Gratuit
15354131_1854970838071206_1069261547_o.png