Télécharger Théâtre de sang

Qualité DVDRiP | FRENCH

Théâtre de sang

Théâtre de sang

Origine du film : Britannique
Réalisateur : Douglas Hickox
Acteurs : Vincent Price, Diana Rigg, Ian Hendry
Genre : Epouvante-horreur
Durée : 1h42min
Année de production : 1973
Titre Original : Theatre of Blood
Note spectateurs : Théâtre de sang 3,7/5 (31)
Bande annonce :

09be63a224eb0ca0e975913d0f964db7

19473395″>Cliquez-ici pour voir la bande annonce 09be63a224eb0ca0e975913d0f964db7″> 19473395

09be63a224eb0ca0e975913d0f964db7

Théâtre de sang

Profitant d’un malentendu, un acteur mal-aimé des critiques se venge.
95547″ style= »display:inline; »>

Théâtre de sang

Format : XviD

Théâtre de sang

Théâtre de sang 1973 FRENCH.DVDRip.XviD.AC3-HuSh

(1360 Mo)

Uptobox
Télécharger

Uploaded
Télécharger

TurboBit
Télécharger

Rapidgator
Télécharger

Uplea
Télécharger

1fichier
Télécharger

NFO :

Afficher / Masquer le texte 71b3bf62c3e0e74ebbad1436a3ddb28e » class= »text_spoiler » style= »display:none; »>■General

Complete name : G:TorrentTheatre.De.Sang.1973.FRENCH.DVDRip.XviD.AC3-HuShTheatre.De.Sang.1973.FRENCH.DVDRip.XviD.AC3-HuSh.avi

Format : AVI

Format/Info : Audio Video Interleave

File size : 1.37 GiB

Duration : 1h 44mn

Overall bit rate : 1 879 Kbps

Writing application : VirtualDubMod 1.5.10.2 (build 2542/release)

Writing library : VirtualDubMod build 2542/release

Video

ID : 0

Format : MPEG-4 Visual

Format profile : Advanced [email protected]

Format settings, BVOP : 1

Format settings, QPel : No

Format settings, GMC : No warppoints

Format settings, Matrix : Default (H.263)

Muxing mode : Packed bitstream

Codec ID : XVID

Codec ID/Hint : XviD

Duration : 1h 44mn

Bit rate : 1 680 Kbps

Width : 592 pixels

Height : 352 pixels

Display aspect ratio : 5:3

Frame rate : 23.976 fps

Color space : YUV

Chroma subsampling : 4:2:0

Bit depth : 8 bits

Scan type : Progressive

Compression mode : Lossy

Bits/(Pixel*Frame) : 0.336

Stream size : 1.22 GiB (89%)

Writing library : XviD 64

Audio

ID : 1

Format : AC-3

Format/Info : Audio Coding 3

Mode extension : CM (complete main)

Format settings, Endianness : Big

Codec ID : 2000

Duration : 1h 44mn

Bit rate mode : Constant

Bit rate : 192 Kbps

Channel(s) : 2 channels

Channel positions : Front: L R

Sampling rate : 48.0 KHz

Compression mode : Lossy

Stream size : 143 MiB (10%)

Alignment : Split accross interleaves

Interleave, duration : 64 ms (1.53 video frames)

Interleave, preload duratio : 500 ms

Jeux Gratuit
15354131_1854970838071206_1069261547_o.png