Télécharger Tigre et dragon DVDRiP en .mkv (HQ)

(TRUEFRENCH = Vraie voix française)

Qualité DVDRiP mkv | TRUEFRENCH

Tigre et dragon

Tigre et dragon

Origine du film : Américain, Chinois, Hong-kongais, Taïwanais
Réalisateur : Ang Lee
Acteurs : Chang Chen, Zhang Ziyi, Michelle Yeoh
Genre : Aventure, Action, Drame
Durée : 1h59min
Date de sortie : 4 octobre 2000
Année de production : 2000
Titre Original : Wo hu cang long
Distribué par : Warner Bros. France
Note presse : Tigre et dragon 4,8/5
Note spectateurs : Tigre et dragon 3,6/5 (10 571)
Bande annonce :

069b98a530b63d50b3702880f6183404

19418855″>Cliquez-ici pour voir la bande annonce 069b98a530b63d50b3702880f6183404″> 19418855

069b98a530b63d50b3702880f6183404

Tigre et dragon

Dans la Chine du XIXème siècle, Li Mu Bai, virtuose des arts martiaux, possède une épée légère, rapide et magique nommée « Destinée ». Elle est l’objet de nombreuses convoitises.Las des combats, Li Mu Bai décide de confier « Destinée » à une excellente guerrière, Yu Shu Lien, à qui il n’ose pas avouer son amour. Celle-ci doit remettre la fameuse épée au seigneur Té, mais une fois la nuit tombée un habile voleur parvient à la lui dérober.A la résidence du seigneur Té, Shu Lien fait la connaissance de Jen, la fille du gouverneur Yu, qui a été promise à un homme qu’elle n’aime point et ferait tout pour mener une vie aussi libre que Shu Lien.Mais l’apparente candeur de Jen cache un sinistre secret ; elle travaille de concert avec la terrible Jade « La Hyène » et n’est autre que l’auteur du vol de « Destinée ». Li et Shu Lien partent alors à la poursuite de Jen pour récupérer l’épée aux vertus magiques.
102493″ style= »display:inline; »>

Tigre et dragon

Format : MKV

Tigre et dragon

TIGRE.ET.DRAGON.2000.FRENCH.DVDRIP.x264-CCTMX

(957 Mo)

Uptobox
Télécharger

Uploaded
Télécharger

TurboBit
Télécharger

Rapidgator
Télécharger

Uplea
Télécharger

1fichier
Télécharger

NFO :

Afficher / Masquer le texte bf807a2b054ce1445160e2c2035cc2a2″ class= »text_spoiler » style= »display:none; »>General
Complete name : TIGRE.ET.DRAGON.2000.FRENCH.DVDRIP.x264-CCTMX.mkv
Format : Matroska
Format version : Version 2
File size : 957 MiB
Duration : 1h 55mn
Overall bit rate : 1 162 Kbps
Writing application : Lavf54.20.3
Writing library : Lavf54.20.3

Video
ID : 1
Format : AVC
Format/Info : Advanced Video Codec
Format profile : [email protected]
Format settings, CABAC : Yes
Format settings, ReFrames : 4 frames
Codec ID : V_MPEG4/ISO/AVC
Duration : 1h 55mn
Bit rate : 1 000 Kbps
Width : 720 pixels
Height : 304 pixels
Display aspect ratio : 2.35:1
Frame rate : 25.000 fps
Color space : YUV
Chroma subsampling : 4:2:0
Bit depth : 8 bits
Scan type : Progressive
Bits/(Pixel*Frame) : 0.183
Stream size : 806 MiB (84%)
Writing library : x264 core 140 r2377 1ca7bb9
Encoding settings : cabac=1 / ref=3 / deblock=1:0:0 / analyse=0x3:0x113 / me=hex / subme=7 / psy=1 / psy_rd=1.00:0.00 / mixed_ref=1 / me_range=16 / chroma_me=1 / trellis=1 / 8x8dct=1 / cqm=0 / deadzone=21,11 / fast_pskip=1 / chroma_qp_offset=-2 / threads=18 / lookahead_threads=2 / sliced_threads=0 / nr=0 / decimate=1 / interlaced=0 / bluray_compat=0 / constrained_intra=0 / bframes=3 / b_pyramid=2 / b_adapt=1 / b_bias=0 / direct=1 / weightb=1 / open_gop=0 / weightp=2 / keyint=250 / keyint_min=25 / scenecut=40 / intra_refresh=0 / rc_lookahead=40 / rc=abr / mbtree=1 / bitrate=1000 / ratetol=1.0 / qcomp=0.60 / qpmin=0 / qpmax=69 / qpstep=4 / ip_ratio=1.40 / aq=1:1.00
Default : Yes
Forced : No
Color primaries : BT.470-6 System B, BT.470-6 System G, BT.601-6 625, BT.1358 625, BT.1700 625 PAL, BT.1700 625 SECAM
Transfer characteristics : BT.709-5, BT.1361
Matrix coefficients : BT.601-6 525, BT.1358 525, BT.1700 NTSC, SMPTE 170M

Audio
ID : 2
Format : AC-3
Format/Info : Audio Coding 3
Mode extension : CM (complete main)
Format settings, Endianness : Big
Codec ID : A_AC3
Duration : 1h 55mn
Bit rate mode : Constant
Bit rate : 160 Kbps
Channel(s) : 2 channels
Channel positions : Front: L R
Sampling rate : 48.0 KHz
Bit depth : 16 bits
Compression mode : Lossy
Delay relative to video : 1mn 5s
Stream size : 132 MiB (14%)
Title : Stereo
Language : French
Default : Yes
Forced : No

Jeux Gratuit
15354131_1854970838071206_1069261547_o.png