Telecharger time walker – Le Promeneur de L'Eternité [DVDRiP] French

(TRUEFRENCH = Vraie voix française)

Qualité DVDRiP | TRUEFRENCH

time walker - Le Promeneur de L'Eternité

time walker - Le Promeneur de L'Eternité

time walker - Le Promeneur de L'Eternité

Origine du film : Américain
Réalisateur : Tom Kennedy
Acteurs : Ben Murphy, Nina Axelrod, Kevin Brophy
Genre : Science fiction
Durée : 01h23min
Date de sortie : 1983
Année de production : 1982

time walker - Le Promeneur de L'Eternité

Une momie vieille de 3000 ans, rapportée d’Egypte par Douglas Mac Cadden un archéologue américain, est libérée de son sommeil après avoir été soumise aux rayons X, et se révèle être un extra-terrestre.

Désormais, ce promeneur de l’éternité se met en quête de cinq cristaux subtilisés par l’un des professeurs, et qui sont ses seuls moyens de communiquer avec les siens. Sur son passage, il sème une étrange moisissure verte, source d’un virus mortel…

Nom de la release : Time Walker Le Promeneur de L’Eternité (1982) FRENCH DVDRiP XviD 34439″ style= »display:inline; »>

Qualité : DVDRiP
Format : XviD
Langue : Français
Taille totale : 700 Mo

1fichier
Télécharger

Uptobox
Télécharger

Free
Télécharger

Uploaded
Télécharger

Rapidgator
Télécharger

TurboBit
Télécharger

NFO :

Afficher / Masquer le texte cdfa9633935a908cdb26afe7ab2908e6″ class= »text_spoiler » style= »display:none; »>Time Walker – Le Promeneur De L'Eternité (1982) FRENCH DVDRiP XviD.avi
Format : AVI
Format/Info : Audio Video Interleave
File size : 684 MiB
Duration : 1h 20mn
Overall bit rate : 1 196 Kbps
Writing application : Lavf55.12.102

Video
ID : 0
Format : MPEG-4 Visual
Format profile : Advanced [email protected]
Format settings, BVOP : No
Format settings, QPel : No
Format settings, GMC : No warppoints
Format settings, Matrix : Default (H.263)
Codec ID : XVID
Codec ID/Hint : XviD
Duration : 1h 20mn
Bit rate : 1 023 Kbps
Width : 712 pixels
Height : 380 pixels
Display aspect ratio : 16:9
Frame rate : 25.000 fps
Color space : YUV
Chroma subsampling : 4:2:0
Bit depth : 8 bits
Scan type : Progressive
Bits/(Pixel*Frame) : 0.151
Stream size : 586 MiB (86%)
Writing library : XviD 64

Audio
ID : 1
Format : MPEG Audio
Format version : Version 1
Format profile : Layer 3
Mode : Joint stereo
Mode extension : MS Stereo
Codec ID : 55
Codec ID/Hint : MP3
Duration : 1h 20mn
Bit rate mode : Constant
Bit rate : 160 Kbps
Channel(s) : 2 channels
Sampling rate : 44.1 KHz
Stream size : 91.6 MiB (13%)
Alignment : Aligned on interleaves
Interleave, duration : 26 ms (0.65 video frame)
Writing library : LAME3.99.5