Telecharger Tobrouk, commando pour l'enfer [DVDRiP] French

(TRUEFRENCH = Vraie voix française)

Qualité DVDRiP | TRUEFRENCH

Tobrouk, commando pour l'enfer

Tobrouk, commando pour l'enfer

Origine du film : Américain
Réalisateur : Arthur Hiller
Acteurs : Rock Hudson, George Peppard, Nigel Green
Genre : Guerre
Durée : 1h50min
Année de production : 1966
Titre Original : Tobruk
Note spectateurs : Tobrouk, commando pour l'enfer

; »>3,2/5 (11)

Tobrouk, commando pour l'enfer

Alors que l’Afrikakorps, sous le commandement du maréchal Rommel, fait route vers Le Caire, les forces britanniques, incapables de contrer son avance, choisissent de recourir à la ruse. Elles imaginent de déguiser des juifs allemands vivant en Palestine en ennemis et de les envoyer dans la citadelle de Tobrouk où Rommel a fait entreposer les réserves de carburant de son armée. Pour atteindre Tobrouk, le commando doit parcourir huit cent kilomètres dans le désert. C’est le début d’un périple peu commun, où les pseudo-nazis, dans des voitures volées aux allemands, franchissent les lignes adverses en escortant des Anglais désarmés censés être leurs prisonniers. Pendant le voyage, le groupe manœuvre de telle sorte qu’une colonne de chars allemands et italiens, se croyant l’une comme l’autre attaquée par les Anglais, se livrent bataille. Le commando en profite pour passer sans être repéré…
92757″ style= »display:inline; »>

Tobrouk, commando pour l'enfer

Format : XviD

Tobrouk, commando pour l'enfer

Tobrouk, commando pour l’enfer 1967 FRENCH.DVDRiP.XviD.AC3-HuSh

(1370 Mo)

Uptobox
Télécharger

Uploaded
Télécharger

TurboBit
Télécharger

Rapidgator
Télécharger

Uplea
Télécharger

1fichier
Télécharger

NFO :

Afficher / Masquer le texte 343d27e859287872d307f575a9b76f30″ class= »text_spoiler » style= »display:none; »>■General

Complete name : G:TorrentTobrouk.Commando.Vers.L.Enfer.1967.FRENCH.DVDRiP.XviD.AC3-HuShTobrouk.Commando.Vers.L.Enfer.1967.FRENCH.DVDRiP.XviD.AC3-HuSh.avi

Format : AVI

Format/Info : Audio Video Interleave

File size : 1.37 GiB

Duration : 1h 45mn

Overall bit rate : 1 861 Kbps

Writing application : VirtualDubMod 1.5.10.2 (build 2542/release)

Writing library : VirtualDubMod build 2542/release

Video

ID : 0

Format : MPEG-4 Visual

Format profile : Advanced [email protected]

Format settings, BVOP : 1

Format settings, QPel : No

Format settings, GMC : No warppoints

Format settings, Matrix : Default (H.263)

Muxing mode : Packed bitstream

Codec ID : XVID

Codec ID/Hint : XviD

Duration : 1h 45mn

Bit rate : 1 598 Kbps

Width : 688 pixels

Height : 288 pixels

Display aspect ratio : 2.40:1

Frame rate : 25.000 fps

Color space : YUV

Chroma subsampling : 4:2:0

Bit depth : 8 bits

Scan type : Progressive

Compression mode : Lossy

Bits/(Pixel*Frame) : 0.323

Stream size : 1.17 GiB (86%)

Writing library : XviD 64

Audio

ID : 1

Format : AC-3

Format/Info : Audio Coding 3

Mode extension : CM (complete main)

Format settings, Endianness : Big

Codec ID : 2000

Duration : 1h 45mn

Bit rate mode : Constant

Bit rate : 256 Kbps

Channel(s) : 2 channels

Channel positions : Front: L R

Sampling rate : 48.0 KHz

Compression mode : Lossy

Stream size : 192 MiB (14%)

Alignment : Split accross interleaves

Interleave, duration : 64 ms (1.60 video frames)

Interleave, preload duratio : 500 ms

Jeux Gratuit
15354131_1854970838071206_1069261547_o.png