Telecharger Tootsie [DVDRiP] French

(TRUEFRENCH = Vraie voix française)

Qualité DVDRiP | TRUEFRENCH

Tootsie

Tootsie

Origine du film : Américain
Réalisateur : Sydney Pollack
Acteurs : Dustin Hoffman, Jessica Lange, Teri Garr
Genre : Comédie, Romance
Durée : 1h57min
Date de sortie : 2 mars 1983
Année de production : 1982
Note presse : Tootsie 4,2/5
Note spectateurs : Tootsie

; »>3,5/5 (2 898)
Bande annonce :

c0221fc403cae96b36b2ca48bde3ba7a

19393777″>Cliquez-ici pour voir la bande annonce c0221fc403cae96b36b2ca48bde3ba7a »> 19393777

c0221fc403cae96b36b2ca48bde3ba7a

Tootsie

Michael Dorsey, acteur exigeant sur le déclin, désespère de décrocher à nouveau un rôle. Sans trop y croire, il décide alors de se créer une nouvelle personnalité : il sera Dorothy Michaels, une femme dotée d’une forte personnalité. Or son déguisement va non seulement lui permettre de jouer dans une série télévisée, mais même lui attirer un vrai public de fans. Si ce nouveau statut n’est pas pour lui déplaire, il se trouve bientôt confronté à un dilemme difficile : comment avouer à sa collègue Julie Nichols, qui a fait de lui sa confidente, qu’il est en réalité un travesti amoureux d’elle ?
105594″ style= »display:inline; »>

Tootsie

Format : XviD

Tootsie

Tootsie 1982 FRENCH.DVDRiP.XViD.AC3-HuSh

(1360 Mo)

Uptobox
Télécharger

Uploaded
Télécharger

TurboBit
Télécharger

Rapidgator
Télécharger

Uplea
Télécharger

1fichier
Télécharger

NFO :

Afficher / Masquer le texte d7cafd83c08fd20773099223c4ee9a5d » class= »text_spoiler » style= »display:none; »>■General

Complete name : H:Tootsie.1982.FRENCH.DVDRiP.XViD.AC3-HuShTootsie.1982.FRENCH.DVDRiP.XViD.AC3-HuSh.avi

Format : AVI

Format/Info : Audio Video Interleave

File size : 1.36 GiB

Duration : 1h 51mn

Overall bit rate : 1 749 Kbps

Movie name : TOUT HUSH SUR team-hush.org

Law rating : Unrated

Original source form/Name : movie

Video

ID : 0

Format : MPEG-4 Visual

Format profile : Advanced [email protected]

Format settings, BVOP : 1

Format settings, QPel : No

Format settings, GMC : No warppoints

Format settings, Matrix : Default (MPEG)

Muxing mode : Packed bitstream

Codec ID : XVID

Codec ID/Hint : XviD

Duration : 1h 51mn

Bit rate : 1 547 Kbps

Width : 640 pixels

Height : 272 pixels

Display aspect ratio : 2.35:1

Frame rate : 25.000 fps

Color space : YUV

Chroma subsampling : 4:2:0

Bit depth : 8 bits

Scan type : Progressive

Compression mode : Lossy

Bits/(Pixel*Frame) : 0.355

Stream size : 1.21 GiB (88%)

Writing library : XviD 1.2.1 (UTC 2008-12-04)

Audio

ID : 1

Format : AC-3

Format/Info : Audio Coding 3

Mode extension : CM (complete main)

Format settings, Endianness : Big

Codec ID : 2000

Duration : 1h 51mn

Bit rate mode : Constant

Bit rate : 192 Kbps

Channel(s) : 2 channels

Channel positions : Front: L R

Sampling rate : 48.0 KHz

Compression mode : Lossy

Stream size : 153 MiB (11%)

Alignment : Split accross interleaves

Interleave, duration : 40 ms (1.00 video frame)

Interleave, preload duratio : 500 ms

Language : Undefined

Jeux Gratuit
15354131_1854970838071206_1069261547_o.png