Télécharger Trop belle ! Blu-Ray 1080p/720p FRENCH

Qualité BLURAY 1080p | MULTiLANGUES

Trop belle !

Trop belle !

Origine du film : Américain
Réalisateur : Jim Field Smith
Acteurs : Jay Baruchel, Alice Eve, T.J. Miller
Genre : Comédie, Romance
Durée : 1h40min
Date de sortie : 23 juin 2010
Année de production : 2010
Titre Original : She’s Out of My League
Distribué par : Paramount Pictures France
Note presse : Trop belle ! 2,6/5
Note spectateurs : Trop belle ! 2,8/5 (999)
Bande annonce :

c7f862bde181aed62bc80f4fcc5d6a57

18958999″>Cliquez-ici pour voir la bande annonce c7f862bde181aed62bc80f4fcc5d6a57″> 18958999

c7f862bde181aed62bc80f4fcc5d6a57

Trop belle !

Un homme banal entame une relation avec une jeune femme extraordinairement belle. Il doit d’abord faire face à ses appréhensions et aux soupçons de sa famille avant de gâcher maladroitement son histoire avec la belle pour toujours…
104066″ style= »display:inline; »>

Trop belle !

Format : MKV
Découpé avec : Winrar

Trop belle !

Shes.Out.Of.My.League.2010.MULTI.1080p.BluRay.x264-FF

(8136 Mo)

[Liens Interchangeables entre hébergeurs: 8x 1000 Mo + 1x 136 Mo]

Uptobox
Télécharger

Uplea
Télécharger

1fichier
Télécharger

Uploaded
Télécharger

Rapidgator
Télécharger

TurboBit
Télécharger

[ Liens Premium ]

Uptobox
Télécharger

Uplea
Télécharger

1fichier
Télécharger

Uploaded
Télécharger

TurboBit
Télécharger

NFO :

Afficher / Masquer le texte 420eee3c4ae7899c4c5c9cd765838ee4″ class= »text_spoiler » style= »display:none; »>shes.out.of.my.league.2010.multi.1080p.bluray.x264-x264-ff.zone-telechargement.com.mkv.mkv
Format : Matroska
Format version : Version 2
File size : 7.95 GiB
Duration : 1h 44mn
Overall bit rate : 10.9 Mbps
Encoded date : UTC 2010-06-25 12:51:27
Writing application : mkvmerge v3.4.0 (‘Rapunzel’) built on May 15 2010 09:38:20
Writing library : libebml v0.8.0 + libmatroska v0.9.0

Video
ID : 1
Format : AVC
Format/Info : Advanced Video Codec
Format profile : [email protected]
Format settings, CABAC : Yes
Format settings, ReFrames : 5 frames
Codec ID : V_MPEG4/ISO/AVC
Duration : 1h 44mn
Bit rate : 8 740 Kbps
Width : 1 920 pixels
Height : 816 pixels
Display aspect ratio : 2.35:1
Frame rate mode : Constant
Frame rate : 23.976 fps
Color space : YUV
Chroma subsampling : 4:2:0
Bit depth : 8 bits
Scan type : Progressive
Bits/(Pixel*Frame) : 0.233
Stream size : 6.22 GiB (78%)
Writing library : x264 core 98 r1649 20cbe10
Encoding settings : cabac=1 / ref=5 / deblock=1:0:0 / analyse=0x3:0x113 / me=umh / subme=7 / psy=1 / psy_rd=1.00:0.00 / mixed_ref=1 / me_range=16 / chroma_me=1 / trellis=1 / 8x8dct=1 / cqm=0 / deadzone=21,11 / fast_pskip=1 / chroma_qp_offset=-2 / threads=12 / sliced_threads=0 / nr=0 / decimate=1 / interlaced=0 / constrained_intra=0 / bframes=3 / b_pyramid=2 / b_adapt=1 / b_bias=0 / direct=1 / weightb=1 / weightp=2 / keyint=250 / keyint_min=25 / scenecut=40 / intra_refresh=0 / rc_lookahead=40 / rc=2pass / mbtree=1 / bitrate=8740 / ratetol=1.0 / qcomp=0.60 / qpmin=10 / qpmax=51 / qpstep=4 / cplxblur=20.0 / qblur=0.5 / ip_ratio=1.40 / aq=1:1.00
Language : English
Default : No
Forced : No

Audio #1
ID : 2
Format : AC-3
Format/Info : Audio Coding 3
Mode extension : CM (complete main)
Format settings, Endianness : Big
Codec ID : A_AC3
Duration : 1h 44mn
Bit rate mode : Constant
Bit rate : 640 Kbps
Channel(s) : 6 channels
Channel positions : Front: L C R, Side: L R, LFE
Sampling rate : 48.0 KHz
Compression mode : Lossy
Stream size : 478 MiB (6%)
Language : French
Default : Yes
Forced : No

Audio #2
ID : 3
Format : DTS
Format/Info : Digital Theater Systems
Mode : 16
Format settings, Endianness : Big
Codec ID : A_DTS
Duration : 1h 44mn
Bit rate mode : Constant
Bit rate : 1 509 Kbps
Channel(s) : 6 channels
Channel positions : Front: L C R, Side: L R, LFE
Sampling rate : 48.0 KHz
Bit depth : 24 bits
Compression mode : Lossy
Stream size : 1.10 GiB (14%)
Language : English
Default : No
Forced : No

Text #1
ID : 4
Format : UTF-8
Codec ID : S_TEXT/UTF8
Codec ID/Info : UTF-8 Plain Text
Language : French
Default : Yes
Forced : No

Text #2
ID : 5
Format : UTF-8
Codec ID : S_TEXT/UTF8
Codec ID/Info : UTF-8 Plain Text
Language : English
Default : No
Forced : No