Télécharger Tu seras un homme, mon fils[DVDRiP]

Qualité DVDRiP | MULTiLANGUES

Origine du film : Américain
Réalisateur : George Sidney
Acteurs : Tyrone Power, Kim Novak, Rex Thompson
Genre : Drame, Biopic, Musical
Durée : 2h 03min
Date de sortie : 13 juin 1956
Année de production : 1956
Titre Original : The Eddy Duchin Story
Note spectateurs :
3,3/5 (12)

Pianiste brillant, Eddy Duchin s’installe à New York pour faire carrière. Il y rencontre la troublante Marjorie Oelrichs. Ils ne tardent pas à se marier, et l’épouse tombe bientôt enceinte. Mais l’accouchement tourne au cauchemar, et la mère meurt en donnant naissance à un fils, Peter. Fou de chagrin, Eddy tient son enfant pour resposable de la mort de sa bien-aimée…
news-id-137350″ style= »display:inline; »>

Format : x264

Tu seras un homme, mon fils 1956 MULTI.DVDRip.x264.AC3-HuSh

(1400 Mo)

Uptobox
Télécharger

Uploaded
Télécharger

TurboBit
Télécharger

Rapidgator
Télécharger

Uplea
Télécharger

1fichier
Télécharger

NFO :

41fbccf6ebe74fe0ac5f393153550ae2″ class= »text_spoiler » style= »display:none; »>

Format version              : Version 4 / Version 2

File size : 1.37 GiB

Duration : 1h 57mn

Overall bit rate : 1 661 Kbps

Movie name : Tu.Seras.Un.Homme.Mon.Fils.1956.MULTI.DVDRip.x264.AC3-HuSh

Encoded date : UTC 2014-09-08 08:24:20

Writing application : mkvmerge v6.3.0 ('You can't stop me!') built on Jun 28 2013 20:09:41

Writing library : libebml v1.3.0 + libmatroska v1.4.0



Video

ID : 1

Format : AVC

Format/Info : Advanced Video Codec

Format profile : [email protected]

Format settings, CABAC : Yes

Format settings, ReFrames : 11 frames

Codec ID : V_MPEG4/ISO/AVC

Duration : 1h 57mn

Bit rate : 1 275 Kbps

Width : 702 pixels

Height : 426 pixels

Display aspect ratio : 2.35:1

Original display aspect rat : 2.35:1

Frame rate mode : Constant

Frame rate : 25.000 fps

Color space : YUV

Chroma subsampling : 4:2:0

Bit depth : 8 bits

Scan type : Progressive

Bits/(Pixel*Frame) : 0.171

Stream size : 1.02 GiB (75%)

Title : Video

Writing library : x264 core 142 r2453

Encoding settings : cabac=1 / ref=11 / deblock=1:-1:-1 / analyse=0x3:0x133 / me=umh / subme=10 / psy=1 / psy_rd=1.00:0.15 / mixed_ref=1 / me_range=32 / chroma_me=1 / trellis=2 / 8x8dct=1 / cqm=0 / deadzone=21,11 / fast_pskip=0 / chroma_qp_offset=-3 / threads=6 / lookahead_threads=1 / sliced_threads=0 / nr=0 / decimate=1 / interlaced=0 / bluray_compat=0 / constrained_intra=0 / bframes=8 / b_pyramid=2 / b_adapt=2 / b_bias=0 / direct=3 / weightb=1 / open_gop=0 / weightp=2 / keyint=250 / keyint_min=25 / scenecut=40 / intra_refresh=0 / rc_lookahead=60 / rc=2pass / mbtree=1 / bitrate=1275 / ratetol=1.0 / qcomp=0.60 / qpmin=10 / qpmax=69 / qpstep=4 / cplxblur=20.0 / qblur=0.5 / vbv_maxrate=17500 / vbv_bufsize=17500 / nal_hrd=none / filler=0 / ip_ratio=1.40 / aq=1:1.00

Default : Yes

Forced : No

Color range : Limited

Color primaries : BT.709

Transfer characteristics : BT.709

Matrix coefficients : BT.709



Audio #1

ID : 2

Format : AC-3

Format/Info : Audio Coding 3

Mode extension : CM (complete main)

Format settings, Endianness : Big

Codec ID : A_AC3

Duration : 1h 57mn

Bit rate mode : Constant

Bit rate : 192 Kbps

Channel(s) : 2 channels

Channel positions : Front: L R

Sampling rate : 48.0 KHz

Compression mode : Lossy

Delay relative to video : -5ms

Stream size : 162 MiB (12%)

Title : Franτais (Stereo AC3 @ 192 Kbps)

Language : French

Default : Yes

Forced : No



Audio #2

ID : 3

Format : AC-3

Format/Info : Audio Coding 3

Mode extension : CM (complete main)

Format settings, Endianness : Big

Codec ID : A_AC3

Duration : 1h 57mn

Bit rate mode : Constant

Bit rate : 192 Kbps

Channel(s) : 2 channels

Channel positions : Front: L R

Sampling rate : 48.0 KHz

Compression mode : Lossy

Delay relative to video : -5ms

Stream size : 162 MiB (12%)

Title : Anglais (Stereo AC3 @ 192 Kbps)

Language : English

Default : No

Forced : No



Text #1

ID : 4

Format : UTF-8

Codec ID : S_TEXT/UTF8

Codec ID/Info : UTF-8 Plain Text

Title : Franτais

Language : French

Default : No

Forced : No



Text #2

ID : 5

Format : UTF-8

Codec ID : S_TEXT/UTF8

Codec ID/Info : UTF-8 Plain Text

Title : Franτais forcés

Language : French

Default : Yes

Forced : Yes