Telecharger Twilight – La Saga [BLURAY 720p] French

(TRUEFRENCH = Vraie voix française)

BLURAY 720p | TRUEFRENCH | DTS

Twilight - La Saga

Twilight - La Saga

Twilight - La Saga

Origine du film : Américain
Réalisateur : Catherine Hardwicke (1), Chris Weitz (2), David Slade (3), Bill Condon (4)
Acteurs : Kristen Stewart, Robert Pattinson, Taylor Lautner, Billy Burke (1 2 3 4)
Genre : Fantastique, Romance (1 2 3 4)
Durée : 2h 10min (1), 2h 10min (2), 2h 04min (3), 1h 57min (4)
Date de sortie : 7 janvier 2009 (1), 18 novembre 2009 (2), 7 juillet 2010 (3), 16 novembre 2011 (4)
Année de production : 2008 (1), 2009 (2), 2010 (3), 2011 (4)
Titre Original : Twilight (1), New Moon (2), Eclipse (3), Breaking Dawn – Part 1 (4)
Distribué par : SND (1 2 3 4)
Note presse : Twilight - La Saga 3,1/5 [1], Twilight - La Saga 2,6/5 [2], Twilight - La Saga 2,6/5 [3], Twilight - La Saga 2,5/5 [4]
Note spectateurs : Twilight - La Saga 3,1/5 (30 953) [1], Twilight - La Saga 2,6/5 (16 874) [2], Twilight - La Saga 3,1/5 (11 962) [3], Twilight - La Saga 3,6/5 (10 596) [4]
Bande annonce :

fd8696157e3ebe63c18c1bd35b588c06

19397976″>Cliquez-ici pour voir la bande annonce fd8696157e3ebe63c18c1bd35b588c06″> 19397976

fd8696157e3ebe63c18c1bd35b588c06

Twilight - La Saga

Chapitre 1 :
Isabella Swan, 17 ans, déménage à Forks, petite ville pluvieuse dans l'Etat de Washington, pour vivre avec son père. Elle s'attend à ce que sa nouvelle vie soit aussi ennuyeuse que la ville elle-même. Or, au lycée, elle est terriblement intriguée par le comportement d'une étrange fratrie, deux filles et trois garçons. Bella tombe follement amoureuse de l'un d'eux, Edward Cullen. Une relation sensuelle et dangereuse commence alors entre les deux jeunes gens : lorsque Isabella comprend que Edward est un vampire, il est déjà trop tard.
Chapitre 2 :
« Tu ne me reverras plus. Je ne reviendrai pas. Poursuis ta vie, ce sera comme si je n'avais jamais existé. » Abandonnée par Edward, celui qu'elle aime passionnément, Bella ne s'en relève pas. Comment oublier son amour pour un vampire et revenir à une vie normale ? Pour combler son vide affectif, Bella court après le danger et prends des risques de plus en plus inconsidérés. Edward n'étant plus là pour la protéger, c'est Jacob, l'ami discret et indéfectible qui va la défendre et veiller sur elle. Mais peu à peu elle réalise l'ambigüité des sentiments qu'ils éprouvent l'un envers l'autre… »
Chapitre 3 :
Des morts suspectes dans les environs de Seattle laissent présager une nouvelle menace pour Bella. Victoria cherche toujours à assouvir sa vengeance contre elle et rassemble une armée. Malgré leur haine ancestrale, les Cullen et les Quileutes vont devoir faire une trêve et s'associer pour avoir une chance de la sauver.Mais Bella est obligée de choisir entre son amour pour Edward et son amitié pour Jacob tout en sachant que sa décision risque de relancer la guerre entre les deux clans. Alors que l'armée de Victoria approche, Bella est confrontée à la plus importante décision de sa vie.
Chapitre 4 :
Bella a fait son choix : elle s’apprête à épouser Edward. Mais le jeune homme honorera-t-il sa part du marché ? Acceptera-t-il de la transformer en vampire et de la voir renoncer à sa vie humaine ?

Nom de la release 1 : Twilight.2008.TRUEFRENCH.720p.BluRay.x264-AiRLiNE

Nom de la release 2 : The.Twilight.Saga.New.Moon.2009.TRUEFRENCH.720p.BluRay.x264

Nom de la release 3 : The.Twilight.Saga.Eclipse.2010.TRUEFRENCH.720p.BluRay.x264-SLiMHD

Nom de la release 4 : The.Twilight.Saga.Breaking.Dawn.Part.1.2011.TRUEFRENCH.720p.BluRay.x264-LOST 25128″ style= »display:inline; »>

Twilight - La Saga

Qualité : BLURAY 720p
Format : MKV
Langue : Français
Sous-titre : Français
Découpé avec : Winrar
Taille totale : 5.46 GB, 6.55 GB, 5.79 GB, 5.44 GB

Twilight - La Saga

utilisez la derniere version de winrar pour extraire
http://www.clubic.com/telecharger-fiche9632-winrar.html

Twilight.2008.TRUEFRENCH.720p.BluRay.x264-AiRLiNE

[6 liens interchangeables : 5 x 1000 Mo + 1 x 595 Mo]

Uptobox
Télécharger

Uplea
Télécharger

1fichier
Télécharger

Uploaded
Télécharger

Rapidgator
Télécharger

TurboBit
Télécharger

[1 lien PREMIUM : 1 x 5.46 GB]

Uptobox
Télécharger

Uplea
Télécharger

1fichier
Télécharger

Uploaded
Télécharger

Rapidgator
Télécharger

TurboBit
Télécharger

NFO:

Afficher / Masquer le texte c38ad4bb1776e7234688ae4d520d0d4e » class= »text_spoiler » style= »display:none; »>General
Complete name : tw.1.vff.720p.mkv
Format : Matroska
Format version : Version 2
File size : 5.46 GiB
Duration : 2h 2mn
Overall bit rate : 6 407 Kbps
Encoded date : UTC 2013-03-22 17:19:34
Writing application : mkvmerge FoR AiRLiNE & AiRTV (‘AiRLiNE & AiRTV’) SC3N3 – FR
Writing library : libebml v1.2.3 + libmatroska v1.3.0

Video
ID : 1
Format : AVC
Format/Info : Advanced Video Codec
Format profile : [email protected]
Format settings, CABAC : Yes
Format settings, ReFrames : 5 frames
Codec ID : V_MPEG4/ISO/AVC
Duration : 2h 2mn
Bit rate : 4 895 Kbps
Width : 1 280 pixels
Height : 536 pixels
Display aspect ratio : 2.40:1
Frame rate mode : Constant
Frame rate : 23.976 fps
Color space : YUV
Chroma subsampling : 4:2:0
Bit depth : 8 bits
Scan type : Progressive
Bits/(Pixel*Frame) : 0.298
Stream size : 4.07 GiB (74%)
Title : AiRLiNE – Twilight chap 1st – 720p
Writing library : x264 core 130 r2273 b3065e6
Encoding settings : cabac=1 / ref=5 / deblock=1:0:0 / analyse=0x3:0x113 / me=umh / subme=7 / psy=1 / psy_rd=1.00:0.00 / mixed_ref=1 / me_range=24 / chroma_me=1 / trellis=1 / 8x8dct=1 / cqm=0 / deadzone=21,11 / fast_pskip=0 / chroma_qp_offset=-2 / threads=4 / lookahead_threads=1 / sliced_threads=0 / nr=0 / decimate=1 / interlaced=0 / bluray_compat=0 / constrained_intra=0 / bframes=16 / b_pyramid=2 / b_adapt=1 / b_bias=0 / direct=1 / weightb=1 / open_gop=0 / weightp=2 / keyint=240 / keyint_min=22 / scenecut=40 / intra_refresh=0 / rc_lookahead=30 / rc=2pass / mbtree=1 / bitrate=4895 / ratetol=1.0 / qcomp=0.60 / qpmin=0 / qpmax=69 / qpstep=4 / cplxblur=20.0 / qblur=0.5 / ip_ratio=1.40 / aq=1:1.00
Default : Yes
Forced : No

Audio
ID : 2
Format : DTS
Format/Info : Digital Theater Systems
Mode : 16
Format settings, Endianness : Big
Codec ID : A_DTS
Duration : 2h 2mn
Bit rate mode : Constant
Bit rate : 1 509 Kbps
Channel(s) : 6 channels
Channel positions : Front: L C R, Side: L R, LFE
Sampling rate : 48.0 KHz
Bit depth : 24 bits
Compression mode : Lossy
Stream size : 1.29 GiB (24%)
Title : TRUEFR-DTS 1510kbps
Language : French
Default : Yes
Forced : No

Text
ID : 3
Format : UTF-8
Codec ID : S_TEXT/UTF8
Codec ID/Info : UTF-8 Plain Text
Title : FR subs
Language : French
Default : No
Forced : No

Menu
00:00:00.000 : en:00:00:00.000
00:05:51.643 : en:00:05:51.643
00:21:00.593 : en:00:21:00.593
00:32:07.092 : en:00:32:07.092
00:38:34.187 : en:00:38:34.187
00:51:36.844 : en:00:51:36.844
01:14:01.604 : en:01:14:01.604
01:19:11.372 : en:01:19:11.372
01:24:51.753 : en:01:24:51.753
01:39:54.530 : en:01:39:54.530
01:47:39.995 : en:01:47:39.995
01:54:06.673 : en:01:54:06.673

The.Twilight.Saga.New.Moon.2009.TRUEFRENCH.720p.BluRay.x264

[7 liens interchangeables : 6 x 1000 Mo + 1 x 712 Mo]

Uptobox
Télécharger

Uplea
Télécharger

1fichier
Télécharger

Uploaded
Télécharger

Rapidgator
Télécharger

TurboBit
Télécharger

[1 lien PREMIUM : 1 x 6.55 GB]

Uptobox
Télécharger

Uplea
Télécharger

1fichier
Télécharger

Uploaded
Télécharger

Rapidgator
Télécharger

TurboBit
Télécharger

NFO:

Afficher / Masquer le texte f9beb23a55bddb04d31d605c9c7f1f79″ class= »text_spoiler » style= »display:none; »>General
Complete name : tw.2.vff.720p.mkv
Format : Matroska
Format version : Version 1
File size : 6.56 GiB
Duration : 2h 10mn
Overall bit rate : 7 168 Kbps
Writing application : x264.exe
Writing library : mkv2rls v1.2 (date: 2010 febr 17)

Video
ID : 1
Format : AVC
Format/Info : Advanced Video Codec
Format profile : [email protected]
Format settings, CABAC : Yes
Format settings, ReFrames : 5 frames
Codec ID : V_MPEG4/ISO/AVC
Duration : 2h 10mn
Bit rate : 5 661 Kbps
Width : 1 280 pixels
Height : 536 pixels
Display aspect ratio : 2.40:1
Frame rate mode : Constant
Frame rate : 23.976 fps
Color space : YUV
Chroma subsampling : 4:2:0
Bit depth : 8 bits
Scan type : Progressive
Bits/(Pixel*Frame) : 0.344
Stream size : 5.05 GiB (77%)
Writing library : x264 core 88 r1471 1144615
Encoding settings : cabac=1 / ref=5 / deblock=1:0:0 / analyse=0x3:0x133 / me=umh / subme=7 / psy=1 / psy_rd=1.00:0.00 / mixed_ref=1 / me_range=16 / chroma_me=1 / trellis=1 / 8x8dct=1 / cqm=0 / deadzone=21,11 / fast_pskip=1 / chroma_qp_offset=-2 / threads=6 / sliced_threads=0 / nr=0 / decimate=1 / mbaff=0 / constrained_intra=0 / bframes=3 / b_pyramid=2 / b_adapt=2 / b_bias=0 / direct=3 / wpredb=1 / wpredp=2 / keyint=250 / keyint_min=25 / scenecut=40 / intra_refresh=0 / rc=2pass / mbtree=0 / bitrate=5661 / ratetol=1.0 / qcomp=0.60 / qpmin=10 / qpmax=51 / qpstep=4 / cplxblur=20.0 / qblur=0.5 / ip_ratio=1.40 / pb_ratio=1.30 / aq=1:1.00
Language : English
Default : Yes
Forced : No

Audio
ID : 2
Format : DTS
Format/Info : Digital Theater Systems
Mode : 16
Format settings, Endianness : Big
Codec ID : A_DTS
Duration : 2h 10mn
Bit rate mode : Constant
Bit rate : 1 509 Kbps
Channel(s) : 6 channels
Channel positions : Front: L C R, Side: L R, LFE
Sampling rate : 48.0 KHz
Bit depth : 24 bits
Compression mode : Lossy
Stream size : 1.38 GiB (21%)
Title : French DTS 1509kbps
Language : French
Default : Yes
Forced : No

The.Twilight.Saga.Eclipse.2010.TRUEFRENCH.720p.BluRay.x264-SLiMHD

[6 liens interchangeables : 5 x 1000 Mo + 1 x 934 Mo]

Uptobox
Télécharger

Uplea
Télécharger

1fichier
Télécharger

Uploaded
Télécharger

Rapidgator
Télécharger

TurboBit
Télécharger

[1 lien PREMIUM : 1 x 5.79 GB]

Uptobox
Télécharger

Uplea
Télécharger

1fichier
Télécharger

Uploaded
Télécharger

Rapidgator
Télécharger

TurboBit
Télécharger

NFO:

Afficher / Masquer le texte 35a991579bdd0629a4f070dbbfd1e7b6″ class= »text_spoiler » style= »display:none; »>General
Complete name : tw.3.vff.720p.mkv
Format : Matroska
Format version : Version 2
File size : 5.80 GiB
Duration : 2h 3mn
Overall bit rate : 6 694 Kbps
Encoded date : UTC 2010-11-28 02:15:54
Writing application : mkvmerge v4.1.1 (‘Bouncin’ Back’) built on Jul 3 2010 22:54:08
Writing library : libebml v1.0.0 + libmatroska v1.0.0

Video
ID : 1
Format : AVC
Format/Info : Advanced Video Codec
Format profile : [email protected]
Format settings, CABAC : Yes
Format settings, ReFrames : 5 frames
Codec ID : V_MPEG4/ISO/AVC
Duration : 2h 3mn
Bit rate : 6 057 Kbps
Width : 1 280 pixels
Height : 528 pixels
Display aspect ratio : 2.40:1
Frame rate mode : Constant
Frame rate : 23.976 fps
Color space : YUV
Chroma subsampling : 4:2:0
Bit depth : 8 bits
Scan type : Progressive
Bits/(Pixel*Frame) : 0.374
Stream size : 5.13 GiB (88%)
Writing library : x264 core 107 r1772 c9dad9e
Encoding settings : cabac=1 / ref=5 / deblock=1:0:0 / analyse=0x3:0x113 / me=umh / subme=7 / psy=1 / psy_rd=1.00:0.20 / mixed_ref=1 / me_range=16 / chroma_me=1 / trellis=1 / 8x8dct=1 / cqm=0 / deadzone=21,11 / fast_pskip=1 / chroma_qp_offset=-3 / threads=12 / sliced_threads=0 / nr=0 / decimate=1 / interlaced=0 / constrained_intra=0 / bframes=3 / b_pyramid=2 / b_adapt=1 / b_bias=0 / direct=3 / weightb=1 / open_gop=0 / weightp=0 / keyint=250 / keyint_min=23 / scenecut=40 / intra_refresh=0 / rc_lookahead=40 / rc=2pass / mbtree=1 / bitrate=6057 / ratetol=1.0 / qcomp=0.60 / qpmin=10 / qpmax=51 / qpstep=4 / cplxblur=20.0 / qblur=0.5 / ip_ratio=1.40 / aq=1:1.00
Language : English
Default : Yes
Forced : No

Audio
ID : 2
Format : AC-3
Format/Info : Audio Coding 3
Mode extension : CM (complete main)
Format settings, Endianness : Big
Codec ID : A_AC3
Duration : 2h 3mn
Bit rate mode : Constant
Bit rate : 640 Kbps
Channel(s) : 6 channels
Channel positions : Front: L C R, Side: L R, LFE
Sampling rate : 48.0 KHz
Bit depth : 16 bits
Compression mode : Lossy
Stream size : 567 MiB (10%)
Title : TrueFrench 640 Kbps
Language : French
Default : Yes
Forced : Yes

Menu
00:00:00.000 : en:00:00:00.000
00:08:47.694 : en:00:08:47.694
00:17:37.515 : en:00:17:37.515
00:25:17.516 : en:00:25:17.516
00:30:20.402 : en:00:30:20.402
00:36:45.078 : en:00:36:45.078
00:43:31.776 : en:00:43:31.776
00:50:13.761 : en:00:50:13.761
00:55:34.373 : en:00:55:34.373
01:00:11.608 : en:01:00:11.608
01:06:12.218 : en:01:06:12.218
01:13:05.214 : en:01:13:05.214
01:19:43.362 : en:01:19:43.362
01:25:15.819 : en:01:25:15.819
01:31:27.232 : en:01:31:27.232
01:35:54.958 : en:01:35:54.958
01:43:19.985 : en:01:43:19.985
01:51:53.498 : en:01:51:53.498

The.Twilight.Saga.Breaking.Dawn.Part.1.2011.TRUEFRENCH.720p.BluRay.x264-LOST

[6 liens interchangeables : 5 x 1000 Mo + 1 x 580 Mo]

Uptobox
Télécharger

Uplea
Télécharger

1fichier
Télécharger

Uploaded
Télécharger

Rapidgator
Télécharger

TurboBit
Télécharger

[1 lien PREMIUM : 1 x 5.44 GB]

Uptobox
Télécharger

Uplea
Télécharger

1fichier
Télécharger

Uploaded
Télécharger

Rapidgator
Télécharger

TurboBit
Télécharger

NFO:

Afficher / Masquer le texte 677d01eb60499e97b9601aeff8824fb1″ class= »text_spoiler » style= »display:none; »>General
Complete name : tw.4.vff.720p.mkv
Format : Matroska
Format version : Version 2
File size : 5.45 GiB
Duration : 1h 57mn
Overall bit rate : 6 658 Kbps
Writing application : mkvmerge v4.1.1 (‘Bouncin’ Back’) built on Jul 3 2010 22:54:08
Writing library : libebml v1.0.0 + libmatroska v1.0

Video
ID : 1
Format : AVC
Format/Info : Advanced Video Codec
Format profile : [email protected]
Format settings, CABAC : Yes
Format settings, ReFrames : 5 frames
Codec ID : V_MPEG4/ISO/AVC
Duration : 1h 57mn
Bit rate : 5 150 Kbps
Width : 1 280 pixels
Height : 536 pixels
Display aspect ratio : 2.40:1
Frame rate mode : Constant
Frame rate : 23.976 fps
Color space : YUV
Chroma subsampling : 4:2:0
Bit depth : 8 bits
Scan type : Progressive
Bits/(Pixel*Frame) : 0.313
Stream size : 4.11 GiB (75%)
Writing library : x264 core 120 r2164 da19765
Encoding settings : cabac=1 / ref=5 / deblock=1:0:0 / analyse=0x3:0x113 / me=umh / subme=7 / psy=1 / psy_rd=1.00:0.15 / mixed_ref=1 / me_range=16 / chroma_me=1 / trellis=1 / 8x8dct=1 / cqm=0 / deadzone=21,11 / fast_pskip=0 / chroma_qp_offset=-3 / threads=12 / sliced_threads=0 / nr=0 / decimate=1 / interlaced=0 / bluray_compat=0 / constrained_intra=0 / bframes=3 / b_pyramid=2 / b_adapt=1 / b_bias=0 / direct=1 / weightb=1 / open_gop=0 / weightp=2 / keyint=250 / keyint_min=23 / scenecut=40 / intra_refresh=0 / rc_lookahead=40 / rc=2pass / mbtree=1 / bitrate=5150 / ratetol=1.0 / qcomp=0.60 / qpmin=0 / qpmax=69 / qpstep=4 / cplxblur=20.0 / qblur=0.5 / ip_ratio=1.40 / aq=1:1.00
Language : English
Default : Yes
Forced : No

Audio
ID : 2
Format : DTS
Format/Info : Digital Theater Systems
Mode : 16
Format settings, Endianness : Big
Codec ID : A_DTS
Duration : 1h 57mn
Bit rate mode : Constant
Bit rate : 1 509 Kbps
Channel(s) : 6 channels
Channel positions : Front: L C R, Side: L R, LFE
Sampling rate : 48.0 KHz
Bit depth : 24 bits
Compression mode : Lossy
Stream size : 1.24 GiB (23%)
Title : French
Language : French
Default : Yes
Forced : No

Text
ID : 3
Format : UTF-8
Codec ID : S_TEXT/UTF8
Codec ID/Info : UTF-8 Plain Text
Title : French forced
Language : French
Default : Yes
Forced : Yes

Menu
00:00:00.000 : en:00:00:00.000
00:11:29.939 : en:00:11:29.939
00:21:38.214 : en:00:21:38.214
00:30:59.775 : en:00:30:59.775
00:41:21.813 : en:00:41:21.813
00:48:07.051 : en:00:48:07.051
00:57:29.905 : en:00:57:29.905
01:10:25.972 : en:01:10:25.972
01:20:57.061 : en:01:20:57.061
01:28:31.389 : en:01:28:31.389
01:39:13.489 : en:01:39:13.489
01:48:38.846 : en:01:48:38.846

The.Twilight.Saga.Breaking.Dawn.Part.2.2012.TRUEFRENCH.DTS.720p.BluRay.x264-LOST

PAR ICI