Télécharger Un Fauteuil pour deux

Qualité BLURAY 720p | FRENCH

Un Fauteuil pour deux

Un Fauteuil pour deux

Origine du film : Américain
Réalisateur : John Landis
Acteurs : Dan Aykroyd, Eddie Murphy, Jamie Lee Curtis
Genre : Comédie
Durée : 1h58min
Date de sortie : 16 novembre 1983
Année de production : 1983
Titre Original : Trading Places
Distribué par : CIC
Note spectateurs : Un Fauteuil pour deux 3,2/5 (1 566)
Bande annonce :

0edede21fef11baef3a2ba040f66d657

19429073″>Cliquez-ici pour voir la bande annonce 0edede21fef11baef3a2ba040f66d657″> 19429073

0edede21fef11baef3a2ba040f66d657

Un Fauteuil pour deux

D’un côté, Louis Winthorpe III, un jeune directeur, est chargé des investissements chez Duke & Duke, une puissante banque de Philadelphie. De l’autre, Billy Ray Valentine est un Noir combinard mais fauché. Tous deux vont faire l’objet d’un pari insensé, passé entre les patrons de Louis.
103074″ style= »display:inline; »>

Un Fauteuil pour deux

Format : MKV
Découpé avec : Winrar

Un Fauteuil pour deux

Un.fauteuil.pour.deux.FRENCH.720p.BluRay.x264.AC3-GAIA

(4319 Mo)

[Liens Interchangeables entre hébergeurs: 4x 1000 Mo + 1x 319 Mo]

Uptobox
Télécharger

Uplea
Télécharger

1fichier
Télécharger

Uploaded
Télécharger

Rapidgator
Télécharger

TurboBit
Télécharger

[ Liens Premium ]

Uptobox
Télécharger

Uplea
Télécharger

1fichier
Télécharger

Uploaded
Télécharger

TurboBit
Télécharger

NFO :

Afficher / Masquer le texte cf1dcc23b33cdafb1eb4e2f67502179c » class= »text_spoiler » style= »display:none; »>Un.fauteuil.pour.deux.FRENCH.720p.BluRay.x264.AC3-GAIA.zone-telechargement.com.mkv
Format : Matroska
Format version : Version 1
File size : 4.22 GiB
Duration : 1h 56mn
Overall bit rate : 5 188 Kbps
Movie name : Un Fauteuil pour deux blu ray rip (x264;5.1)-team GAÏA-for hdfrench
Encoded date : UTC 2007-08-08 05:44:27
Writing application : mkvmerge v2.0.2 (‘You’re My Flame’) built on Feb 21 2007 23:40:55
Writing library : libebml v0.7.7 + libmatroska v0.8.1

Video
ID : 1
Format : AVC
Format/Info : Advanced Video Codec
Format profile : [email protected]
Format settings, CABAC : Yes
Format settings, ReFrames : 11 frames
Codec ID : V_MPEG4/ISO/AVC
Duration : 1h 56mn
Bit rate : 4 737 Kbps
Width : 1 280 pixels
Height : 720 pixels
Display aspect ratio : 16:9
Frame rate mode : Constant
Frame rate : 23.976 fps
Color space : YUV
Chroma subsampling : 4:2:0
Bit depth : 8 bits
Scan type : Progressive
Bits/(Pixel*Frame) : 0.214
Stream size : 3.77 GiB (89%)
Title : x264 720p
Writing library : x264 core 56 svn-667C
Encoding settings : cabac=1 / ref=8 / deblock=1:-3:-3 / analyse=0x3:0x133 / me=umh / subme=6 / brdo=1 / mixed_ref=1 / me_range=16 / chroma_me=1 / trellis=1 / 8x8dct=1 / cqm=2 / deadzone=21,11 / chroma_qp_offset=0 / threads=3 / nr=0 / decimate=0 / mbaff=0 / bframes=3 / b_pyramid=1 / b_adapt=1 / b_bias=0 / direct=3 / wpredb=1 / bime=1 / keyint=250 / keyint_min=25 / scenecut=40(pre) / rc=2pass / bitrate=4737 / ratetol=1.0 / rceq=’blurCplx^(1-qComp)’ / qcomp=0.60 / qpmin=10 / qpmax=51 / qpstep=4 / cplxblur=20.0 / qblur=0.5 / ip_ratio=1.40 / pb_ratio=1.30 / aq=1:0.3:15.0
Language : French
Default : Yes
Forced : No

Audio
ID : 2
Format : AC-3
Format/Info : Audio Coding 3
Mode extension : CM (complete main)
Format settings, Endianness : Big
Codec ID : A_AC3
Duration : 1h 56mn
Bit rate mode : Constant
Bit rate : 448 Kbps
Channel(s) : 6 channels
Channel positions : Front: L C R, Side: L R, LFE
Sampling rate : 48.0 KHz
Compression mode : Lossy
Stream size : 373 MiB (9%)
Title : french 5.1
Language : French
Default : Yes
Forced : No