Telecharger Un justicier dans la ville n°2 [DVDRiP] French

Qualité BDRiP mkv | MULTiLANGUES

Un justicier dans la ville n°2

Un justicier dans la ville n°2

Origine du film : Américain
Réalisateur : Michael Winner
Acteurs : Charles Bronson, Jill Ireland, Vincent Gardenia
Genre : Thriller, Action
Durée : 1h28min
Date de sortie : 10 mars 1982
Année de production : 1982
Titre Original : Death Wish II
Note spectateurs : Un justicier dans la ville n°2

; »>2,7/5 (110)
Bande annonce :

a622bbfb473e036d15a6243e3c4fc3e0

19446636″>Cliquez-ici pour voir la bande annonce a622bbfb473e036d15a6243e3c4fc3e0″> 19446636

a622bbfb473e036d15a6243e3c4fc3e0

Un justicier dans la ville n°2

L’architecte Paul Kersey vit à Los Angeles avec sa nouvelle compagne, Geri. Mais sa fille est violée par des voyous et se suicide. Paul va à nouveau se faire justice lui-même…
105367″ style= »display:inline; »>

Un justicier dans la ville n°2

Format : MKV

Un justicier dans la ville n°2

Un Justicier dans la Ville 2 1982 MULTI.BDRip.x264.AC3-HuSh

(1370 Mo)

Uptobox
Télécharger

Uploaded
Télécharger

TurboBit
Télécharger

Rapidgator
Télécharger

Uplea
Télécharger

1fichier
Télécharger

NFO :

Afficher / Masquer le texte 4c3d8b0ed8bda3ccf6316d11d487b157″ class= »text_spoiler » style= »display:none; »>■General

Unique ID : 185027806146817510319394647612719316005 (0x8B330F2A5E5B5E11BE5AAD3768F33C25)

Complete name : H:Un.Justicier.Dans.La.Ville.2.1982.MULTI.BDRip.x264.AC3-HuSh.mkv

Format : Matroska

Format version : Version 2

File size : 1.37 GiB

Duration : 1h 28mn

Overall bit rate mode : Variable

Overall bit rate : 2 204 Kbps

Movie name : Un.Justicier.Dans.La.Ville.2.1982.MULTI.BDRip.x264.AC3-HuSh

Encoded date : UTC 2015-07-20 18:03:37

Writing application : mkvmerge v3.2.0 (‘Beginnings’) built on Feb 12 2010 16:46:17

Writing library : libebml v0.7.9 + libmatroska v0.8.1

Video

ID : 1

Format : AVC

Format/Info : Advanced Video Codec

Format profile : [email protected]

Format settings, CABAC : Yes

Format settings, ReFrames : 8 frames

Codec ID : V_MPEG4/ISO/AVC

Duration : 1h 28mn

Bit rate mode : Variable

Bit rate : 1 818 Kbps

Maximum bit rate : 17.5 Mbps

Width : 720 pixels

Height : 384 pixels

Display aspect ratio : 1.85:1

Frame rate mode : Constant

Frame rate : 23.976 fps

Color space : YUV

Chroma subsampling : 4:2:0

Bit depth : 8 bits

Scan type : Progressive

Bits/(Pixel*Frame) : 0.274

Stream size : 1.10 GiB (81%)

Writing library : x264 core 146 r2538

Encoding settings : cabac=1 / ref=8 / deblock=1:-1:-1 / analyse=0x3:0x133 / me=umh / subme=9 / psy=1 / psy_rd=1.00:0.00 / mixed_ref=1 / me_range=32 / chroma_me=1 / trellis=2 / 8x8dct=1 / cqm=0 / deadzone=21,11 / fast_pskip=0 / chroma_qp_offset=-2 / threads=6 / lookahead_threads=1 / sliced_threads=0 / nr=0 / decimate=1 / interlaced=0 / bluray_compat=0 / constrained_intra=0 / bframes=3 / b_pyramid=2 / b_adapt=2 / b_bias=0 / direct=3 / weightb=1 / open_gop=0 / weightp=2 / keyint=239 / keyint_min=23 / scenecut=40 / intra_refresh=0 / rc_lookahead=60 / rc=2pass / mbtree=1 / bitrate=1818 / ratetol=1.0 / qcomp=0.60 / qpmin=10 / qpmax=69 / qpstep=4 / cplxblur=20.0 / qblur=0.5 / vbv_maxrate=17500 / vbv_bufsize=17500 / nal_hrd=vbr / filler=0 / ip_ratio=1.40 / aq=1:1.00

Language : English

Default : Yes

Forced : No

Audio #1

ID : 2

Format : AC-3

Format/Info : Audio Coding 3

Mode extension : CM (complete main)

Format settings, Endianness : Big

Codec ID : A_AC3

Duration : 1h 28mn

Bit rate mode : Constant

Bit rate : 192 Kbps

Channel(s) : 1 channel

Channel positions : Front: C

Sampling rate : 48.0 KHz

Compression mode : Lossy

Stream size : 122 MiB (9%)

Language : French

Default : Yes

Forced : No

Audio #2

ID : 3

Format : AC-3

Format/Info : Audio Coding 3

Mode extension : CM (complete main)

Format settings, Endianness : Big

Codec ID : A_AC3

Duration : 1h 28mn

Bit rate mode : Constant

Bit rate : 192 Kbps

Channel(s) : 1 channel

Channel positions : Front: C

Sampling rate : 48.0 KHz

Compression mode : Lossy

Stream size : 122 MiB (9%)

Language : English

Default : No

Forced : No

Text #1

ID : 4

Format : UTF-8

Codec ID : S_TEXT/UTF8

Codec ID/Info : UTF-8 Plain Text

Title : SUBFORCED

Language : French

Default : Yes

Forced : Yes

Text #2

ID : 5

Format : UTF-8

Codec ID : S_TEXT/UTF8

Codec ID/Info : UTF-8 Plain Text

Language : French

Default : No

Forced : No

Jeux Gratuit
15354131_1854970838071206_1069261547_o.png