Telecharger Une Rencontre [BLURAY 720p] French

BLURAY 720p | FRENCH | DTS

Une Rencontre

Une Rencontre

Une Rencontre

Origine du film : Français
Réalisateur : Lisa Azuelos
Acteurs : Sophie Marceau, François Cluzet, Lisa Azuelos
Genre : Romance, Drame
Durée : 1h22min
Date de sortie : 23 avril 2014
Année de production : 2014
Distribué par : Pathé Distribution
Note presse : Une Rencontre 2,7/5
Note spectateurs : Une Rencontre

; »>2,9/5 (981)
Bande annonce :

a664bb558f0baeabba806fdfae0187e4

19543660″>Cliquez-ici pour voir la bande annonce a664bb558f0baeabba806fdfae0187e4″> 19543660

a664bb558f0baeabba806fdfae0187e4

Une Rencontre

Elsa écrivain, et Pierre, avocat, se croisent lors de la soirée de clôture d’un salon du livre : un regard, un briquet qui change de mains, des rires un peu trop nerveux, le frémissement d’une histoire possible… Une rencontre ? Sauf que la vie de Pierre, c’est d’abord sa famille : ses enfants et Anne, sa femme depuis quinze ans, celle qui l’aimera toujours, et qu’il aimera toujours, en dépit de la routine et du temps qui passe, il le sait. Elsa, de son côté, se reconstruit peu à peu suite à un divorce compliqué, se partageant entre l’écriture, ses ados qui grandissent trop vite, ses amies et une histoire légère comme l’air avec Hugo, son jeune amant. Pour elle, l’homme marié est un tabou et même pire : une erreur. Pourtant… Dès le premier regard, la rencontre de Pierre et Elsa s’inscrit dans une temporalité différente, comme si présent et futur possible se dédoublaient, s’entrechoquaient… jusqu’à créer une réalité où tout serait possible.
58084″ style= »display:inline; »>

Une Rencontre

Qualité : BLURAY 720p
Format : MKV
Langue : Français
Découpé avec : Winrar
Nombre de fichiers : 5 Fichiers
Taille des fichiers : 1000 Mo + 468 Mo

Une Rencontre

[5 Liens Interchangeables : 4 x 1000 Mo + 1 x 468 Mo]

Une.Rencontre.2014.FRENCH.720p.BluRay.x264-Goatlove ( 4468 Mo)

Uptobox
Télécharger

Uplea
Télécharger

1fichier
Télécharger

Uploaded
Télécharger

Rapidgator
Télécharger

TurboBit
Télécharger

[1 Lien PREMIUM : 1 x 4.36 GB]

Uptobox
Télécharger

Uplea
Télécharger

1fichier
Télécharger

Uploaded
Télécharger

Rapidgator
Télécharger

TurboBit
Télécharger

NFO :

Afficher / Masquer le texte f9fea070d02451970b3dc4e03ab1f5d2″ class= »text_spoiler » style= »display:none; »>General
Format version : Version 2
File size : 4.36 GiB
Duration : 1h 21mn
Overall bit rate : 7 665 Kbps
Writing application : mkvmerge v6.6.0 (‘The Edge Of The In Between’) built on Dec 1 2013 17:55:00
Writing library : libebml v1.3.0 + libmatroska v1.4.1

Video
ID : 1
Format : AVC
Format/Info : Advanced Video Codec
Format profile : [email protected]
Format settings, CABAC : Yes
Format settings, ReFrames : 5 frames
Codec ID : V_MPEG4/ISO/AVC
Duration : 1h 21mn
Bit rate : 6 163 Kbps
Width : 1 280 pixels
Height : 536 pixels
Display aspect ratio : 2.40:1
Frame rate mode : Constant
Frame rate : 24.000 fps
Color space : YUV
Chroma subsampling : 4:2:0
Bit depth : 8 bits
Scan type : Progressive
Bits/(Pixel*Frame) : 0.374
Stream size : 3.42 GiB (78%)
Writing library : x264 core 142 r2479 dd79a61
Encoding settings : cabac=1 / ref=5 / deblock=1:0:0 / analyse=0x3:0x133 / me=umh / subme=8 / psy=1 / psy_rd=1.00:0.00 / mixed_ref=1 / me_range=16 / chroma_me=1 / trellis=1 / 8x8dct=1 / cqm=0 / deadzone=21,11 / fast_pskip=0 / chroma_qp_offset=-2 / threads=12 / lookahead_threads=2 / sliced_threads=0 / nr=0 / decimate=1 / interlaced=0 / bluray_compat=0 / constrained_intra=0 / bframes=3 / b_pyramid=2 / b_adapt=2 / b_bias=0 / direct=3 / weightb=1 / open_gop=0 / weightp=2 / keyint=250 / keyint_min=24 / scenecut=40 / intra_refresh=0 / rc_lookahead=50 / rc=2pass / mbtree=1 / bitrate=6163 / ratetol=1.0 / qcomp=0.60 / qpmin=0 / qpmax=69 / qpstep=4 / cplxblur=20.0 / qblur=0.5 / ip_ratio=1.40 / aq=1:1.00
Language : English
Default : Yes
Forced : No

Audio
ID : 2
Format : DTS
Format/Info : Digital Theater Systems
Mode : 16
Format settings, Endianness : Big
Codec ID : A_DTS
Duration : 1h 21mn
Bit rate mode : Constant
Bit rate : 1 509 Kbps
Channel(s) : 6 channels
Channel positions : Front: L C R, Side: L R, LFE
Sampling rate : 48.0 KHz
Bit depth : 24 bits
Compression mode : Lossy
Stream size : 880 MiB (20%)
Title : French
Language : French
Default : Yes
Forced : No

Menu
00:00:00.000 : en:00:00:00.000
00:04:29.167 : en:00:04:29.167
00:09:35.958 : en:00:09:35.958
00:18:05.250 : en:00:18:05.250
00:21:21.583 : en:00:21:21.583
00:25:02.292 : en:00:25:02.292
00:32:27.125 : en:00:32:27.125
00:40:10.458 : en:00:40:10.458
00:49:19.083 : en:00:49:19.083
00:57:24.667 : en:00:57:24.667
01:08:58.833 : en:01:08:58.833
01:15:55.583 : en:01:15:55.583